Скачать через торрент Стимбой Steamboy бесплатно Аниме Все серии на русском torrent

Если у вас наблюдаются проблемы со скриншотами, переходом по ссылками, скачиванием торрентов - проблемы в блокировщике рекламы AdBlock. #хорошегоДня!


Статистика раздачи
Размер:  6.68 GB   |    Зарегистрирован:  5 месяцев 22 дня   |    .torrent скачан:  27 раз   |   
Раздают:  1  
   
Загрузка...
 
Автор Сообщение

Galfimbul

avatar Galfimbul


Стимбой / Steamboy
Год выпуска: 2004
Страна: Япония
Жанр: приключения, фантастика
Тип: Movie
Продолжительность: 126 минРежиссёр: Отомо Кацухиро
Автор оригинала: Отомо Кацухиро
Студия: SunriseОзвучка:
Многоголосная MC EntertainmentСубтитры: есть
русские (внешние) SRT полные
от MC Entertainment
от Дмитрия Толмачова a.k.a. Mokona
от Trus'aанглийские (встроенные) ASS полные
THORAОписание: Викторианская Англия середины XIX века. Рэй Стим (Стим - пар по-английски) - на вид обычный мальчишка, каких многие тысячи. Но его дед с отцом, Ллойд и Эдвард Стимы, - выдающиеся изобретатели машин, движимых паром, да и у самого Стима-младшего настольными книгами служат технические справочники, а игрушками - запчасти от парового котла. Пока отец и дед годами пропадают за океаном, совершенствуя технологию высвобождения энергии сильно сжатого пара при щедрой финансовой поддержке крупного производителя оружия из Америки концерна О`Хара, Рэй тихо живёт с матерью в родном Манчестере. Но его безмятежный мир разбивается вдребезги, когда в дом приносят посылку с новейшим изобретением Стимов - паровым шаром, небольшим сферическим приспособлением, содержащим в себе колоссальный энергетический потенциал. Не успевает он открыть крышку, как к ним являются зловещего вида молодчики, пытаясь отобрать чудесное приспособление. Однако Рэй не из тех, кто легко уступает. Таким образом он оказывается втянутым в схватку мощных сил, состязающихся за право использовать в своих корыстных целях плоды инженерного гения семьи Стимов, в схватку, где его отец и дед находятся по разные стороны баррикад...
© Алексей Фадеев, World ArtЗвуковые дорожки и субтитры взяты из релиза HANSMER'a Качество: BDRip
Релиз/Автор рипа: THORA
Совместимость с бытовыми плеерами: Нет
Наличие линковки: Нет
Тип видео: без хардсаба
Формат: MKV
Видео: x264, 1920x1038, 1,85:1, ~4433кбит/с, 23.976fps, 10 bit
Аудио #1 (внешняя) русская - DTS, 6 ch, 1510кбит/с, 48000Hz
Аудио #2 (в контейнере) японская - DTS, 6 ch, 1510кбит/с, 48000Hz
* Чтобы смотреть с озвучкой, необходимо из папки Rus sound переписать файл в папку, где находятся видео файл. Далее, следует запустить плеер и переключиться на mka-дорожку. Подробное описание здесь
* Чтобы смотреть 10-битное видео (10bit), необходимо, исходя из ваших предпочтений используемого проигрывателя, воспользоваться
этой инструкцией.
* Чтобы смотреть с субтитрами, необходимо из папки к примеру [MC-Ent] переписать файл в папку, где находятся видео файл. В большинстве плееров, одноимённые субтитры подключатся автоматически.
...3252924 - лучше качество видео
<div class="sp-wrap">
<div class="sp-head folded">Сравнения</div>
<div class="sp-body">Тут
Там
...3231809 - BDRip
...2376511 - 1080p</div>
</div>
Общее
Уникальный идентификатор : 207109435151432097852419170737018445868 (0x9BCFD387E4D92A2CA53B329C3BA9202C)
Полное имя : C:\Торренты №2\Steamboy [BDRip 1038p]\Steamboy [BDRip 1038p 10bit] - THORA.mkv
Формат : Matroska
Версия формата : Version 2
Размер файла : 5,35 Гбайт
Продолжительность : 2 ч. 6 м.
Общий поток : 6063 Кбит/сек
Дата кодирования : UTC 2017-06-18 06:52:04
Программа кодирования : mkvmerge v2.9.7 ('Tenderness') built on Jul 1 2009 18:43:35
Библиотека кодирования : libebml v0.7.7 + libmatroska v0.8.1
Attachments : ChaparralPro-Bold.otf / ChaparralPro-Regular.otf / ChaparralPro-Italic.otf / ChaparralPro-BoldIt.otf / CronosPro-Bold.ttf / CronosPro-Semibold.ttf / CronosPro-SemiboldIt.ttf

Видео
Идентификатор : 1
Формат : AVC
Формат/Информация : Advanced Video Codec
Профиль формата : High 10@L4.1
Параметр CABAC формата : Да
Параметр ReFrames формата : 3 кадра
Идентификатор кодека : V_MPEG4/ISO/AVC
Продолжительность : 2 ч. 6 м.
Битрейт : 4433 Кбит/сек
Ширина : 1920 пикселей
Высота : 1038 пикселей
Соотношение сторон : 1,85:1
Режим частоты кадров : Постоянный
Частота кадров : 23,976 (24000/1001) кадра/сек
Цветовое пространство : YUV
Субдискретизация насыщенности : 4:2:0
Битовая глубина : 10 бит
Тип развёртки : Прогрессивная
Бит/(Пиксели*Кадры) : 0.093
Размер потока : 3,91 Гбайт (73%)
Библиотека кодирования : x264 core
Язык : Japanese
Default : Да
Forced : Нет

Аудио
Идентификатор : 2
Формат : DTS
Формат/Информация : Digital Theater Systems
Режим : 16
Параметр Endianness формата : Big
Идентификатор кодека : A_DTS
Продолжительность : 2 ч. 6 м.
Вид битрейта : Постоянный
Битрейт : 1509 Кбит/сек
Каналы : 6 каналов
Расположение каналов : Front: L C R, Side: L R, LFE
Частота : 48,0 КГц
Частота кадров : 93,750 кадра/сек (512 spf)
Битовая глубина : 24 бит
Метод сжатия : С потерями
Размер потока : 1,33 Гбайт (25%)
Язык : Japanese
Default : Да
Forced : Нет

Текст
Идентификатор : 3
Формат : ASS
Идентификатор кодека : S_TEXT/ASS
Идентификатор кодека/Информация : Advanced Sub Station Alpha
Метод сжатия : Без потерь
Язык : English
Default : Да
Forced : Нет


Трекер:  [ 18-Июн-2017 19:30 ]

  

Скачать .torrent

Размер .torrent файла 17 KB


Размер: 6.68 GB
Хэш (hash) релиза: e370a751a18af74e93b86a8cca8fd38306c2dc47
Подписка на обновления:

Еще никто не оставлял запись к записи скачать торрент Стимбой Steamboy . Будь первым!

!Обратная связь