Скачать через торрент Вкривь и вкось Kris Kras Фильм бесплатно в хорошем качестве torrent

Скачивайте на UnionPeer.org фильмы через торрент без регистрации. Новинки кино в хорошем качестве через торрент. На UnionPeer.org можно скачать через торрент фильмы 2014 и 2015 годов. Самые новые фильмы.

Скачать торрент Вкривь и вкось Kris Kras бесплатно через .torrent фильм мультфильм сериал

Если у вас наблюдаются проблемы со скриншотами, переходом по ссылками, скачиванием торрентов - проблемы в блокировщике рекламы AdBlock. #хорошегоДня!


Статистика раздачи
Размер:  3.1 GB   |    Зарегистрирован:  5 месяцев 23 дня   |    .torrent скачан:  41 раз   |   
Раздают:  1  
   
Загрузка...
 
Автор Сообщение

Galfimbul

avatar Galfimbul


Вкривь и вкось /Kris Kras

Год выхода: 2014
Жанр: семейный, приключения, комедия
Режиссер: Давид Грифхорст
В ролях: Виктор Рейнир, Эрик Де Фогель, Каролине де Брёйн, Биргит Шуурман, Камьель ван Опхем, Йентль Майер, Том Янсен, Ким Питерс, Тьеббо Герритсма, Бинг Вирсма, Мигель Штигтер

О фильме:
Юрре и Кики - 9-летние близнецы, родители которых развелись и вечно работают, поэтому единственный настоящий дом для брата и сестры, где им хорошо и где им всегда рады - дом дедушки. Но их мать получает работу на Ибице и вместе с детьми переезжает туда. После их отъезда случается несчастье: дедушка получает тяжелую травму и попадает в больницу, а поскольку ухаживать за ним некому, то его решают определить в дом престарелых, а дом продать. И Юрре и Кики, сбежав от матери, отправляются в долгое путешествие через пол-Европы, чтобы спасти и деда, и его дом...

</a>

Производство: Нидерланды / Endemol Nederland B.V.
Продолжительность: 01:22:29
Перевод: любительский (одноголосый закадровый) [viktor_2838]

Файл
Качество: HDTVRip 720p
Формат: MKV
Видео: MPEG-4 AVC, 1280x720 (16:9), 25.000 fps, 4595 kbps, 0.199 bit/pixel
Аудио #1: русский, AC3 2.0, 48 kHz, 224 kbps
Аудио #2: голландский, AC3 5.1, 48 kHz, 448 kbps
Субтитры: русские [Алексей Крылов], английские вшитые отключаемые
Формат : Matroska
Версия формата : Version 4 / Version 2
Размер файла : 3,10 Гбайт
Продолжительность : 1 ч. 22 м.
Общий поток : 5374 Кбит/сек
Дата кодирования : UTC 2016-07-16 00:00:15
Программа кодирования : mkvmerge v7.9.0 ('Birds') 64bit
Библиотека кодирования : libebml v1.3.1 + libmatroska v1.4.2

Видео
Идентификатор : 1
Формат : AVC
Формат/Информация : Advanced Video Codec
Профиль формата : High@L4.1
Параметр CABAC формата : Да
Параметр ReFrames формата : 5 кадров
Идентификатор кодека : V_MPEG4/ISO/AVC
Продолжительность : 1 ч. 22 м.
Битрейт : 4595 Кбит/сек
Ширина : 1280 пикселей
Высота : 720 пикселей
Соотношение сторон : 16:9
Режим частоты кадров : Постоянный
Частота кадров : 25,000 кадров/сек
Цветовое пространство : YUV
Субдискретизация насыщенности : 4:2:0
Битовая глубина : 8 бит
Тип развёртки : Прогрессивная
Бит/(Пиксели*Кадры) : 0.199
Размер потока : 2,65 Гбайт (86%)
Библиотека кодирования : x264 core 142 r2453 ea0ca51
Настройки программы : opencl=1 / cabac=1 / ref=5 / deblock=1:0:0 / analyse=0x3:0x113 / me=umh / subme=8 / psy=1 / psy_rd=1.00:0.15 / mixed_ref=1 / me_range=16 / chroma_me=1 / trellis=1 / 8x8dct=1 / cqm=0 / deadzone=21,11 / fast_pskip=1 / chroma_qp_offset=-3 / threads=20 / lookahead_threads=3 / sliced_threads=0 / nr=0 / decimate=1 / interlaced=0 / bluray_compat=0 / constrained_intra=0 / bframes=3 / b_pyramid=2 / b_adapt=2 / b_bias=0 / direct=3 / weightb=1 / open_gop=0 / weightp=2 / keyint=250 / keyint_min=25 / scenecut=40 / intra_refresh=0 / rc_lookahead=50 / rc=crf / mbtree=1 / crf=18.0 / qcomp=0.60 / qpmin=0 / qpmax=69 / qpstep=4 / ip_ratio=1.40 / aq=1:1.00
Default : Да
Forced : Нет
Цветовой диапазон : Limited
Коэффициенты матрицы : BT.709

Аудио #1
Идентификатор : 2
Формат : AC-3
Формат/Информация : Audio Coding 3
Расширение режима : CM (complete main)
Параметр Endianness формата : Big
Идентификатор кодека : A_AC3
Продолжительность : 1 ч. 22 м.
Вид битрейта : Постоянный
Битрейт : 224 Кбит/сек
Каналы : 2 канала
Расположение каналов : Front: L R
Частота : 48,0 КГц
Метод сжатия : С потерями
Размер потока : 132 Мбайт (4%)
Язык : Russian
Default : Да
Forced : Нет

Аудио #2
Идентификатор : 3
Формат : AC-3
Формат/Информация : Audio Coding 3
Расширение режима : CM (complete main)
Параметр Endianness формата : Big
Идентификатор кодека : A_AC3
Продолжительность : 1 ч. 22 м.
Вид битрейта : Постоянный
Битрейт : 448 Кбит/сек
Каналы : 6 каналов
Расположение каналов : Front: L C R, Side: L R, LFE
Частота : 48,0 КГц
Метод сжатия : С потерями
Размер потока : 264 Мбайт (8%)
Язык : Dutch
Default : Нет
Forced : Нет

Текст #1
Идентификатор : 4
Формат : UTF-8
Идентификатор кодека : S_TEXT/UTF8
Идентификатор кодека/Информация : UTF-8 Plain Text
Язык : Russian
Default : Да
Forced : Нет

Текст #2
Идентификатор : 5
Формат : UTF-8
Идентификатор кодека : S_TEXT/UTF8
Идентификатор кодека/Информация : UTF-8 Plain Text
Язык : English
Default : Нет
Forced : Нет


Трекер:  [ 18-Июн-2017 13:40 ]

  

Скачать .torrent

Размер .torrent файла 16 KB


Размер: 3.1 GB
Хэш (hash) релиза: 42ceeab3ce28f425c701fda372c95401423f6e5d
Подписка на обновления:

Еще никто не оставлял запись к записи скачать торрент Вкривь и вкось Kris Kras . Будь первым!

!Обратная связь