Скачать через торрент Коматозники Flatliners Фильм бесплатно в хорошем качестве torrent

Скачивайте на UnionPeer.org фильмы через торрент без регистрации. Новинки кино в хорошем качестве через торрент. На UnionPeer.org можно скачать через торрент фильмы 2014 и 2015 годов. Самые новые фильмы.

Скачать торрент Коматозники Flatliners бесплатно через .torrent фильм мультфильм сериал

Если у вас наблюдаются проблемы со скриншотами, переходом по ссылками, скачиванием торрентов - проблемы в блокировщике рекламы AdBlock. #хорошегоДня!


Статистика раздачи
Размер:  141 MB   |    Зарегистрирован:  2 месяца 2 дня   |    .torrent скачан:  13 раз   |   
Раздают:  1  
   
Загрузка...
 
Автор Сообщение

Galfimbul

avatar Galfimbul


Коматозники / Flatliners
Тип раздаваемого материала: трейлер
Год выпуска фильма: 2017
Страна: США
Жанр: ужасы, фантастика, триллер, драма
Продолжительность: 00:02:28
Перевод: Полное дублированниеРежиссер: Нильс Арден Оплев / Niels Arden OplevВ ролях: Нина Добрев, Эллен Пейдж, Кифер Сазерленд, Диего Луна, Кирси Клемонс, Шарлотта МакКинни, Джеймс Нортон, Тайлер Хайнс, Бо Мирчофф, Стив БайерсОписание: Группа студентов-медиков решает проникнуть в самую тайну небытия, поочерёдно вводя друг друга в состояние клинической смерти — пока побочные эффекты эксперимента не начинают угрожать их жизням.Качество: HD 1080p
Формат видео: MP4
Видео кодек: H264
Аудио кодек: AAC
Видео: AVC, 1920x1080 (2.35:1), 24.000 fps, 7 850 Kbps (0.158 bit/pixel)
Аудио: AAC, 44.1 KHz, 2 ch, 127 Kbps, VBR - русский
Общее
Полное имя : D:\Раздачи\Flatliners.2017.Trailer.Dub.mp4
Формат : MPEG-4
Профиль формата : Base Media
Идентификатор кодека : isom (isom/iso2/avc1/mp41)
Размер файла : 141 Мбайт
Продолжительность : 2 м. 28 с.
Режим общего битрейта : Переменный
Общий поток : 7981 Кбит/сек
Дата кодирования : UTC 2017-06-15 11:54:04
Дата пометки : UTC 2017-06-15 11:54:04
Программа кодирования : Lavf51.12.1

Видео
Идентификатор : 1
Формат : AVC
Формат/Информация : Advanced Video Codec
Профиль формата : High@L1.3
Параметр CABAC формата : Нет
Параметр ReFrames формата : 5 кадров
Параметр GOP формата : M=1, N=12
Идентификатор кодека : avc1
Идентификатор кодека/Информация : Advanced Video Coding
Продолжительность : 2 м. 28 с.
Битрейт : 7850 Кбит/сек
Ширина : 1920 пикселей
Высота : 1080 пикселей
Соотношение сторон : 2,40:1
Режим частоты кадров : Постоянный
Частота кадров : 24,000 кадра/сек
Цветовое пространство : YUV
Субдискретизация насыщенности : 4:2:0
Битовая глубина : 8 бит
Тип развёртки : Прогрессивная
Бит/(Пиксели*Кадры) : 0.158
Размер потока : 139 Мбайт (98%)
Язык : English
Дата кодирования : UTC 2017-06-15 11:54:04
Дата пометки : UTC 2017-06-15 11:54:04

Аудио
Идентификатор : 2
Формат : AAC
Формат/Информация : Advanced Audio Codec
Профиль формата : LC
Идентификатор кодека : 40
Продолжительность : 2 м. 28 с.
Вид битрейта : Переменный
Битрейт : 127 Кбит/сек
Каналы : 2 канала
Расположение каналов : Front: L R
Частота : 44,1 КГц
Частота кадров : 43,066 кадра/сек (1024 spf)
Метод сжатия : С потерями
Размер потока : 2,24 Мбайт (2%)
Язык : English
Дата кодирования : UTC 2017-06-15 11:54:04
Дата пометки : UTC 2017-06-15 11:54:04


Трекер:  [ 17-Июн-2017 16:30 ]

  

Скачать .torrent

Размер .torrent файла 11 KB


Размер: 141 MB
Хэш (hash) релиза: 10c33bd1d4efad73353876d767bcde6bc4a84695
Подписка на обновления:

Торренты, похожие на Коматозники Flatliners скачать торрент

Форум Название Автор Размер S L Добавлен
Зарубежные фильмы до 2016 ·· Коматозники / Flatliners (Джоэл Шумахер / Joel Schumacher) [1990 г., Триллер, Мистика, HDRip] Dub Galfimbul 781842432746 MB 0 0 1364829477

18:17

1-Апр-13

Зарубежные фильмы до 2016 ·· Коматозники / Flatliners (Джоэл Шумахер / Joel Schumacher) [1990 г., фантастика, триллер, драма, BDRemux 1080p] Dub + MVO + AVO (Иванов) Galfimbul 1922487496917.9 GB 0 0 1315064682

18:44

3-Сен-11

Зарубежные фильмы до 2016 ·· Коматозники / Flatliners (Джоэл Шумахер / Joel Schumacher) [1990 г., фантастика, триллер, драма, Blu-ray Disc (custom)] L 2490660160623.2 GB 0 0 1312111257

14:20

31-Июл-11

Зарубежные фильмы до 2016 ·· Коматозники / Flatliners (Джоэль Шумахер) [1990 г., ужасы, фантастика, триллер, BDRip 720р] genkasper 50287216944.68 GB 0 0 1295735644

01:34

23-Янв-11

Зарубежные фильмы до 2016 ·· Коматозники / Flatliners (Джоэл Шумахер / Joel Schumacher) [1990 г., ужасы, триллер, фантастика, HDRip-AVC] Dub + MVO + original + sub mikxtor 15649534371.46 GB 0 0 1290622785

21:19

24-Ноя-10

Еще никто не оставлял запись к записи скачать торрент Коматозники Flatliners . Будь первым!

!Обратная связь