Скачать через торрент Кубо. Легенда о самурае в 3Д Kubo and the Two Strings 3D Фильм бесплатно в хорошем качестве torrent

Скачивайте на UnionPeer.org фильмы через торрент без регистрации. Новинки кино в хорошем качестве через торрент. На UnionPeer.org можно скачать через торрент фильмы 2014 и 2015 годов. Самые новые фильмы.

Скачать торрент Кубо. Легенда о самурае в 3Д Kubo and the Two Strings 3D бесплатно через .torrent фильм мультфильм сериал

Если у вас наблюдаются проблемы со скриншотами, переходом по ссылками, скачиванием торрентов - проблемы в блокировщике рекламы AdBlock. #хорошегоДня!


Статистика раздачи
Размер:  8.77 GB   |    Зарегистрирован:  3 месяца 10 дней   |    .torrent скачан:  35 раз   |   
Раздают:  1  
   
Загрузка...
 
Автор Сообщение

Galfimbul

avatar Galfimbul


Кубо. Легенда о самурае
Kubo and the Two Strings
Год выпуска: 2016
Страна: США (Focus Features, Laika Entertainment)
Жанр: Мультфильм, Фэнтези, Приключения, Семейный
Продолжительность: 01:41:36

Перевод: Профессиональный дублированный (лицензия)

Режиссер: Трэвис Найт / Travis KnightРоли озвучивали (дублировали):



Kubo - Арт Паркинсон (Иван Золотухин)
Monkey - Шарлиз Терон (Алёна Ивченко)
Moon King - Рэйф Файнс (Алексей Иващенко)
Hosato - Джордж Такей (Анатолий Пашнин)
Hashi - Кэри-Хироюки Тагава (Илья Исаев)
Kameyo - Бренда Ваккаро (Ёла Санько)
The Sisters - Руни Мара (Ирина Линдт)
Beetle - Мэттью МакКонахи (Даниил Эльдаров)
Mari - Мейрик Мерфи (Василиса Савкина)
Minae - Мина Нодзи
Aiko - Альфа Такахаси
Miho - Лаура МироОписание: Кубо — наследник великого рода, но когда возвратились духи прошлого, жаждущие мести, на его защиту отважилась встать лишь странная парочка хранителей. И теперь для Кубо единственный шанс на спасение — найти магические доспехи отца, легендарного самурая.Премьера: 13 августа 2016 (20 октября 2016)
Бюджет: $60 000 000
Кассовые сборы: $69 812 368
. .
Пятый анимационный фильм студии «Laika Entertainment».
В трейлере слышен кавер на композицию «While My Guitar Gently Weeps» группы «The Beatles» в исполнении Регины Спектор.
Качество: BDRip (by Ash61)
Контейнер: MKV
Формат 3D: Half OverUnder / Вертикальная анаморфная стереопара
Порядок ракурсов: левый ракурс первыйВидео: AVC / 1920х1080p / 23,976 fps / 10.6 Mbps

Аудио:
#1 - Русский / AC3 / 48 KHz / 5.1 ch / 640 Kbps (Дубляж - BD Eur)
#2 - Украинский / AC3 / 48 KHz / 2 ch / 192 Kbps (Дубляж - Line) [моно] (спасибо Hurtom!)
#3 - Английский / AC3 / 48 KHz / 5.1 ch / 640 Kbps (Original - BD 3D)

Субтитры (внешние SRT UTF-8):
#1 - Русские Полные (BD Eur)
#2 - English Full
#3 - English SDH
General
Unique ID : 235484310415203346251945258367490196286 (0xB128A0E478C337FDB095DA7A6584033E)
Complete name : E:\KuboAndTheTwoStrings(2016)3D-halfOU(Ash61)\KuboAndTheTwoStrings(2016)3D-halfOU(Ash61).mkv
Format : Matroska
Format version : Version 2
File size : 8.77 GiB
Duration : 1h 41mn
Overall bit rate : 12.4 Mbps
Movie name : Кубо. Легенда о самурае / Kubo and the Two Strings (2016) в 3Д
Encoded date : UTC 2017-05-03 10:10:36
Writing application : mkvmerge v5.8.0 ('No Sleep / Pillow') built on Sep 2 2012 15:37:04
Writing library : libebml v1.2.3 + libmatroska v1.3.0

Video
ID : 1
Format : AVC
Format/Info : Advanced Video Codec
Format profile : High@L4.1
Format settings, CABAC : Yes
Format settings, ReFrames : 4 frames
Codec ID : V_MPEG4/ISO/AVC
Duration : 1h 41mn
Bit rate : 10.6 Mbps
Width : 1 920 pixels
Height : 1 080 pixels
Display aspect ratio : 16:9
Frame rate mode : Constant
Frame rate : 23.976 fps
Color space : YUV
Chroma subsampling : 4:2:0
Bit depth : 8 bits
Scan type : Progressive
Bits/(Pixel*Frame) : 0.214
Stream size : 7.55 GiB (86%)
Title : BDRip by Ash61
Writing library : x264 core 146 r2538 121396c
Encoding settings : cabac=1 / ref=4 / deblock=1:-3:-3 / analyse=0x3:0x113 / me=umh / subme=10 / psy=1 / psy_rd=1.00:0.00 / mixed_ref=1 / me_range=32 / chroma_me=1 / trellis=2 / 8x8dct=1 / cqm=0 / deadzone=21,11 / fast_pskip=1 / chroma_qp_offset=-2 / threads=12 / lookahead_threads=2 / sliced_threads=0 / nr=0 / decimate=1 / interlaced=0 / bluray_compat=0 / constrained_intra=0 / bframes=9 / b_pyramid=2 / b_adapt=2 / b_bias=0 / direct=3 / weightb=1 / open_gop=0 / weightp=2 / keyint=250 / keyint_min=23 / scenecut=40 / intra_refresh=0 / rc_lookahead=60 / rc=crf / mbtree=1 / crf=15.7 / qcomp=0.70 / qpmin=0 / qpmax=69 / qpstep=4 / vbv_maxrate=40000 / vbv_bufsize=30000 / crf_max=0.0 / nal_hrd=none / filler=0 / frame-packing=4 / ip_ratio=1.40 / aq=1:0.70
Language : English
Default : Yes
Forced : No

Audio #1
ID : 2
Format : AC-3
Format/Info : Audio Coding 3
Mode extension : CM (complete main)
Format settings, Endianness : Big
Codec ID : A_AC3
Duration : 1h 41mn
Bit rate mode : Constant
Bit rate : 640 Kbps
Channel(s) : 6 channels
Channel positions : Front: L C R, Side: L R, LFE
Sampling rate : 48.0 KHz
Bit depth : 16 bits
Compression mode : Lossy
Stream size : 465 MiB (5%)
Title : Дубляж - BD Eur
Language : Russian
Default : Yes
Forced : No

Audio #2
ID : 3
Format : AC-3
Format/Info : Audio Coding 3
Mode extension : CM (complete main)
Format settings, Endianness : Big
Codec ID : A_AC3
Duration : 1h 41mn
Bit rate mode : Constant
Bit rate : 192 Kbps
Channel(s) : 2 channels
Channel positions : Front: L R
Sampling rate : 48.0 KHz
Bit depth : 16 bits
Compression mode : Lossy
Stream size : 140 MiB (2%)
Title : Дубляж - Line (моно)
Language : Ukrainian
Default : No
Forced : No

Audio #3
ID : 4
Format : AC-3
Format/Info : Audio Coding 3
Mode extension : CM (complete main)
Format settings, Endianness : Big
Codec ID : A_AC3
Duration : 1h 41mn
Bit rate mode : Constant
Bit rate : 640 Kbps
Channel(s) : 6 channels
Channel positions : Front: L C R, Side: L R, LFE
Sampling rate : 48.0 KHz
Bit depth : 16 bits
Compression mode : Lossy
Stream size : 465 MiB (5%)
Title : Original - BD 3D
Language : English
Default : No
Forced : No

Menu
00:00:00.000 : :1
00:02:56.508 : :2
00:07:10.637 : :3
00:12:08.894 : :4
00:17:19.954 : :5
00:21:40.798 : :6
00:25:58.390 : :7
00:32:11.554 : :8
00:36:58.048 : :9
00:42:33.509 : :10
00:47:48.657 : :11
00:50:47.668 : :12
00:56:48.947 : :13
01:02:56.313 : :14
01:08:28.270 : :15
01:12:40.605 : :16
01:20:00.628 : :17
01:24:22.265 : :18
01:28:46.069 : :19
01:32:49.563 : :20
3.05.2017. Релиз обновлён - русская дорога iTunes заменена на лицензионную, добавлена украинская.
Желающие, скачайте заново торрент-файл.


Трекер:  [ 15-Июн-2017 00:01 ]

  

Скачать .torrent

Размер .torrent файла 44 KB


Размер: 8.77 GB
Хэш (hash) релиза: 4cacb7d95679f3b8ee1a0d1b7e68865edbe3fc78
Подписка на обновления:

Еще никто не оставлял запись к записи скачать торрент Кубо. Легенда о самурае в 3Д Kubo and the Two Strings 3D . Будь первым!

!Обратная связь