Скачать через торрент Всё будет хорошо в 3Д Every Thing Will Be Fine 3D Фильм бесплатно в хорошем качестве torrent

Скачивайте на UnionPeer.org фильмы через торрент без регистрации. Новинки кино в хорошем качестве через торрент. На UnionPeer.org можно скачать через торрент фильмы 2014 и 2015 годов. Самые новые фильмы.

Скачать торрент Всё будет хорошо в 3Д Every Thing Will Be Fine 3D бесплатно через .torrent фильм мультфильм сериал

Если у вас наблюдаются проблемы со скриншотами, переходом по ссылками, скачиванием торрентов - проблемы в блокировщике рекламы AdBlock. #хорошегоДня!


Статистика раздачи
Размер:  8.24 GB   |    Зарегистрирован:  5 месяцев 6 дней   |    .torrent скачан:  40 раз   |   
Раздают:  1  
   
Загрузка...
 
Автор Сообщение

Galfimbul

avatar Galfimbul


Всё будет хорошо
Every Thing Will Be Fine
Год выпуска: 2015
Страна: Германия, Канада, Франция, Швеция, Норвегия (Film i Väst, Göta Film, Montauk Productions, Wenders Images)
Жанр: Драма, Арт-хаус
Продолжительность: 01:59:05

Перевод: Любительский двухголосый закадровый - Parovoz Production

Режиссер: Вим Вендерс / Wim WendersВ ролях:



Джеймс Франко (Tomas), Рэйчел МакАдамс (Sara), Шарлотта Генсбур (Kate), Мари-Жозе Кроз (Ann), Патрик Бошо (Dad), Петер Стормаре (Publisher), Джек Фултон (Christopher - 5-8 Years Old), Филипп Ванасс-Паке (Christopher - 12 Years Old), Роберт Нэйлор (Christopher - Teenager), Лайла Фицджералд (Mina - 8 Years Old), Джулия Сара Стоун (Mina - 12-14 Years Old)Описание: История о писателе по имени Томас, который случайно оказывается виновен в смерти ребёнка. Следующие 12 лет жизни Томаса сконцентрируются на его переживаниях из-за случившегося, а также его отношениях с Кейт, матерью погибшего ребёнка.Комментарий и информация от Jedem: "Ребята, не ждите ярких эмоций. Это фильм, на котором можно уснуть, и это нормально. Этот фильм показывает стремление к покою. Но если вы, как и я, с пиететом относитеть к Вендерсу, вам не удастся отвлечься, вас ожидает тонкая душевная работа. Это труд - читать фильм так, как он есть. И это труд - найти в душе отклик и понять что-то о себе.

Выдержка из пресс-конференции перед премьерным показом на Берлинале 2015. Ниже мой перевод комментария Вима Вендерса:
Название фильма немного указывает на сказку. “Всё будет хорошо“ звучит почти как… “и жили они долго и счастливо“. Но фильм пытается использовать это, чтобы показать процесс исцеления. И в современном мире это может звучать как волшебная сказка, но мы рассматривали это как реальность… Как ты можешь излечиться от ран и травмы и как… какая у тебя ответственность перед людьми, у Томаса, к примеру, перед семьей, которую он даже не знает. Он чужак для Кэйт и Кристофера. И он старается строить семью, но… ему приходится принять тот факт, что он к тому же отвечает за жизни незнакомых ему людей. И… они показывают ему, как исцеляться. И особенно персонаж Кэйт, она очень великодушна, она приглашает его в их [в семью Кэйт – прим. переводчика] жизни, чтобы он понял, что он должен научиться прощать себя. Так что, возможно… возможно, что-то из этого ближе к сказке, но я это воспринимаю и как что-то очень реальное, то, что многие люди пережили. Исцеление – важная часть нашей жизни. И путь к нему не всегда очевиден."Премьера (мир): 10 февраля 2015
. . Качество: BDRip (by Ash61 с BD 3D Ita)
Контейнер: MKV
Формат 3D: Half OverUnder / Вертикальная анаморфная стереопара
Порядок ракурсов: левый ракурс первыйВидео: AVC / 1920х1080p / 23,976 fps / 8430 Kbps

Аудио:
#1 - Русский / AC3 / 48 KHz / 5.1 ch / 640 Kbps (DVO - Parovoz Production) (монтаж в 5.1 - Ash61)
#2 - Английский / AC3 / 48 KHz / 5.1 ch / 640 Kbps (Original - BD 3D)

Субтитры (SRT):
Вшитые (softsub):
#1 - Русские Форсированные (включены по умолчанию)

Внешние (UTF-8):
#1 - Русские Форсированные (включены по умолчанию)
General
Unique ID : 250630150518623835704198502243868797505 (0xBC8D9C769EECCA8CB5E46C346ACAEA41)
Complete name : E:\EveryThingWillBeFine(2015)3D-halfOU(Ash61)VO-5.1\EveryThingWillBeFine(2015)3D-halfOU(Ash61)VO-5.1.mkv
Format : Matroska
Format version : Version 2
File size : 8.24 GiB
Duration : 1h 59mn
Overall bit rate : 9 907 Kbps
Movie name : Все будет хорошо / Every Thing Will Be Fine (2015) в 3Д
Encoded date : UTC 2017-03-09 21:01:33
Writing application : mkvmerge v5.8.0 ('No Sleep / Pillow') built on Sep 2 2012 15:37:04
Writing library : libebml v1.2.3 + libmatroska v1.3.0

Video
ID : 1
Format : AVC
Format/Info : Advanced Video Codec
Format profile : High@L4.1
Format settings, CABAC : Yes
Format settings, ReFrames : 4 frames
Codec ID : V_MPEG4/ISO/AVC
Duration : 1h 59mn
Bit rate : 8 430 Kbps
Width : 1 920 pixels
Height : 1 080 pixels
Display aspect ratio : 16:9
Frame rate mode : Constant
Frame rate : 23.976 fps
Color space : YUV
Chroma subsampling : 4:2:0
Bit depth : 8 bits
Scan type : Progressive
Bits/(Pixel*Frame) : 0.170
Stream size : 7.01 GiB (85%)
Title : BDRip by Ash61 (BD 3D Ita)
Writing library : x264 core 146 r2538 121396c
Encoding settings : cabac=1 / ref=4 / deblock=1:-3:-3 / analyse=0x3:0x113 / me=umh / subme=10 / psy=1 / psy_rd=1.00:0.00 / mixed_ref=1 / me_range=32 / chroma_me=1 / trellis=2 / 8x8dct=1 / cqm=0 / deadzone=21,11 / fast_pskip=1 / chroma_qp_offset=-2 / threads=12 / lookahead_threads=3 / sliced_threads=0 / nr=0 / decimate=1 / interlaced=0 / bluray_compat=0 / constrained_intra=0 / bframes=12 / b_pyramid=2 / b_adapt=2 / b_bias=0 / direct=3 / weightb=1 / open_gop=0 / weightp=2 / keyint=250 / keyint_min=23 / scenecut=40 / intra_refresh=0 / rc_lookahead=60 / rc=crf / mbtree=1 / crf=16.5 / qcomp=0.70 / qpmin=0 / qpmax=69 / qpstep=4 / vbv_maxrate=40000 / vbv_bufsize=30000 / crf_max=0.0 / nal_hrd=none / filler=0 / frame-packing=4 / ip_ratio=1.40 / aq=1:0.70
Language : English
Default : Yes
Forced : No

Audio #1
ID : 2
Format : AC-3
Format/Info : Audio Coding 3
Mode extension : CM (complete main)
Format settings, Endianness : Big
Codec ID : A_AC3
Duration : 1h 59mn
Bit rate mode : Constant
Bit rate : 640 Kbps
Channel(s) : 6 channels
Channel positions : Front: L C R, Side: L R, LFE
Sampling rate : 48.0 KHz
Bit depth : 16 bits
Compression mode : Lossy
Stream size : 545 MiB (6%)
Title : Двухголосый закадровый - Parovoz Production (монтаж в 5.1 - Ash61)
Language : Russian
Default : Yes
Forced : No

Audio #2
ID : 3
Format : AC-3
Format/Info : Audio Coding 3
Mode extension : CM (complete main)
Format settings, Endianness : Big
Codec ID : A_AC3
Duration : 1h 59mn
Bit rate mode : Constant
Bit rate : 640 Kbps
Channel(s) : 6 channels
Channel positions : Front: L C R, Side: L R, LFE
Sampling rate : 48.0 KHz
Bit depth : 16 bits
Compression mode : Lossy
Stream size : 545 MiB (6%)
Title : Original - BD 3D Ita
Language : English
Default : No
Forced : No

Text
ID : 4
Format : UTF-8
Codec ID : S_TEXT/UTF8
Codec ID/Info : UTF-8 Plain Text
Title : Форсированные
Language : Russian
Default : Yes
Forced : No

Menu
00:00:00.000 : :1
00:06:41.067 : :2
00:18:31.902 : :3
00:21:41.383 : :4
00:29:32.437 : :5
00:34:37.993 : :6
00:37:23.741 : :7
00:43:22.099 : :8
00:51:17.700 : :9
00:57:01.543 : :10
01:05:25.797 : :11
01:18:28.746 : :12
01:27:38.044 : :13
01:38:23.481 : :14
01:53:10.909 : :15


Трекер:  [ 15-Июн-2017 00:01 ]

  

Скачать .torrent

Размер .torrent файла 42 KB


Размер: 8.24 GB
Хэш (hash) релиза: 652ba8b9f636739c7de0eb88656a3b953cd72df0
Подписка на обновления:

Еще никто не оставлял запись к записи скачать торрент Всё будет хорошо в 3Д Every Thing Will Be Fine 3D . Будь первым!

!Обратная связь