Скачать через торрент Медвежья буря, лилий ураган Yurikuma Arashi бесплатно Аниме Все серии на русском torrent

Если у вас наблюдаются проблемы со скриншотами, переходом по ссылками, скачиванием торрентов - проблемы в блокировщике рекламы AdBlock. #хорошегоДня!


Статистика раздачи
Размер:  72.64 GB   |    Зарегистрирован:  5 месяцев 28 дней   |    .torrent скачан:  22 раза   |   
Раздают:  1  
   
Загрузка...
 
Автор Сообщение

Galfimbul

avatar Galfimbul


Медвежья буря, лилий ураган / Yurikuma Arashi

Год выпуска: 2015
Страна: Япония
Жанр:
Тип: TV
Продолжительность: 12 эп. по 24 мин.
Озвучка: нет

Русские субтитры: есть (отдельным файлом, формат .ass)
Перевод:

hoshizora, Surokune, Uker [Akashi]
Blazing Wizard, BO3DYX, Reaper

Хардсаб: НетРежиссер: Икухара Кунихико
Студия: Silver Link

Описание: Однажды утром Камелия Курэха и Идзумино Флори, ученицы академии «Буревестная», вместе любовались цветами лилий на клумбе, что хранит память об их любви. И вдруг завопил «Медвежий ревун» — глашатай, что возвестил о вторжении медведей.
Что же это за медведи? Загадок становится всё больше — они как волны, что в час бури набегают одна за другой. Поднимается занавес. Да начнётся медвежья буря — прекрасных лилий ураган!

Качество: Blu-Ray Remux
Формат: MKV
Видео кодек: AVC
Аудио кодек: FLAC
Видео: 1920x1080 (16:9) 23,976 fps ~30,7 Mbps 8bit
Аудио:
Jap FLAC, 48000Hz, ~681 Kbps, 2ch

Чаптеры присутствуют.
01. От своей любви не отрекусь!
02. Пусть я умру, но тебя - не прощу!
03. Невидимая буря.
04. Поцелуем меня не одарят.
05. Ты будешь только моей!
06. Дочь Луны и дочь Леса.
07. Девочка, которую я забыла.
08. Невеста в ящике.
09. Будущее, что их ждет.
10. Врата дружбы.
11. Наши мечты.
12. Ты мне так нужна.
Общее
Уникальный идентификатор : 215314043401560412551400563292020098825 (0xA1FBF9F2F3EBEDB8A6155B9504A74709)
Полное имя : Z:\Anime Release - working\Yurikuma Arashi\[anti-raws]Yurikuma Arashi ep.01[BDRemux].mkv
Формат : Matroska
Версия формата : Version 4 / Version 2
Размер файла : 5,39 Гбайт
Продолжительность : 24 м. 2 с.
Режим общего битрейта : Переменный
Общий поток : 32,1 Мбит/сек
Дата кодирования : UTC 2017-05-14 19:27:24
Программа кодирования : mkvmerge v11.0.0 ('Alive') 64bit
Библиотека кодирования : libebml v1.3.4 + libmatroska v1.4.5

Видео
Идентификатор : 2
Формат : AVC
Формат/Информация : Advanced Video Codec
Профиль формата : High@L4.1
Параметр CABAC формата : Да
Параметр ReFrames формата : 4 кадра
Идентификатор кодека : V_MPEG4/ISO/AVC
Продолжительность : 24 м. 2 с.
Вид битрейта : Переменный
Битрейт : 31,4 Мбит/сек
Максимальный битрейт : 39,0 Мбит/сек
Ширина : 1920 пикселей
Высота : 1080 пикселей
Соотношение сторон : 16:9
Режим частоты кадров : Постоянный
Частота кадров : 23,976 (24000/1001) кадра/сек
Цветовое пространство : YUV
Субдискретизация насыщенности : 4:2:0
Битовая глубина : 8 бит
Тип развёртки : Прогрессивная
Бит/(Пиксели*Кадры) : 0.632
Размер потока : 5,27 Гбайт (98%)
Default : Нет
Forced : Нет

Аудио
Идентификатор : 1
Формат : FLAC
Формат/Информация : Free Lossless Audio Codec
Идентификатор кодека : A_FLAC
Продолжительность : 24 м. 2 с.
Вид битрейта : Переменный
Битрейт : 681 Кбит/сек
Каналы : 2 канала
Расположение каналов : Front: L R
Частота : 48,0 КГц
Частота кадров : 11,719 кадров/сек (4096 spf)
Битовая глубина : 16 бит
Размер потока : 117 Мбайт (2%)
Библиотека кодирования : libFLAC 1.2.1 (UTC 2007-09-17)
Язык : Japanese
Default : Да
Forced : Нет

Меню
00:00:00.000 : en:00:00:00.000
00:02:15.010 : en:00:02:15.010
00:03:45.016 : en:00:03:45.016
00:13:36.983 : en:00:13:36.983
00:22:29.974 : en:00:22:29.974
...4909060
--HDTVRip

Эта раздача - BDRemux


Трекер:  [ 13-Июн-2017 09:01 ]

  

Скачать .torrent

Размер .torrent файла 98 KB


Размер: 72.64 GB
Хэш (hash) релиза: 5cb8281d98ebce707a10f7c985ed26e6faf0133b
Подписка на обновления:

Торренты, похожие на Медвежья буря, лилий ураган Yurikuma Arashi скачать торрент

Форум Название Автор Размер S L Добавлен
Аниме | Rips ·· Медвежья буря, лилий ураган / Yurikuma Arashi / Yuri Kuma Arashi (Икухара Кунихико) [TV] [12 из 12] [без хардсаба] [RUS(ext),JAP+SUB] [2015 г., сёдзё-ай, фэнтези, драма, школа, BDRip] [1080p] Galfimbul 2069866886019.28 GB 0 0 1465266763

05:32

7-Июн-16

Еще никто не оставлял запись к записи скачать торрент Медвежья буря, лилий ураган Yurikuma Arashi . Будь первым!

!Обратная связь