Скачать порно через торрент Gridiron Гридирон UnionPeer.org бесплатно онлайн HD качество

Скачать новое порно 2015, 2014 новинки через торрент UnionPeer.org

Порно торрент бесплатно ЮнионПир.орг

Если у вас наблюдаются проблемы со скриншотами, переходом по ссылками, скачиванием торрентов - проблемы в блокировщике рекламы AdBlock. #хорошегоДня!


Статистика раздачи
Размер:  741 MB   |    Зарегистрирован:  4 месяца 11 дней   |    .torrent скачан:  24 раза   |   
Раздают:  1  
   
Загрузка...
 
Автор Сообщение

Galfimbul

avatar Galfimbul



Gridiron
Гридирон

Год производства:
1989 г.
Страна:
US
Жанр:
Oral, Anal Sex, Bareback
Продолжительность:
01:10:18
Студия:
Fine-Line Productions
Режиссер:
Patrick Dennis
В ролях:
Buck Tanner, David Rockmore, Grant Howard, Michael Moore, Rick Lee (90s), Rick Racer, Steven Craig, Thorn Wilder, Tom Chandler, Trevor Daley
Описание:
It''s time to sack the quarterback, Jack. At any place. Welcome to the end zone.
Качество видео:
VHSRip
Формат видео:
DivX
Видео:
MPEG-4, 512x384, 29.970 fps, 1 201 kbps
Аудио:
MPEG Audio, 48.0 kHz, Lossy, 128 kbps
what?
Format : DivX
Format/Info : Hack of AVI
File size : 741 MiB
Duration : 1 h 17 min
Overall bit rate : 1 340 kb/s

Video
ID : 0
Format : MPEG-4 Visual
Format settings, BVOP : 1
Format settings, QPel : No
Format settings, GMC : No warppoints
Format settings, Matrix : Default (H.263)
Muxing mode : Packed bitstream
Codec ID : DX50
Codec ID/Hint : DivX 5
Duration : 1 h 17 min
Bit rate : 1 201 kb/s
Nominal bit rate : 4 854 kb/s
Width : 512 pixels
Height : 384 pixels
Display aspect ratio : 4:3
Frame rate : 29.970 (30000/1001) FPS
Color space : YUV
Chroma subsampling : 4:2:0
Bit depth : 8 bits
Scan type : Progressive
Compression mode : Lossy
Bits/(Pixel*Frame) : 0.204
Stream size : 664 MiB (90%)
Title : Main
Writing library : DivX 6.7.0 (UTC 2007-09-20)

Audio
ID : 1
Format : MPEG Audio
Format version : Version 1
Format profile : Layer 3
Mode : Joint stereo
Mode extension : MS Stereo
Codec ID : 55
Codec ID/Hint : MP3
Duration : 1 h 17 min
Bit rate mode : Constant
Bit rate : 128 kb/s
Channel(s) : 2 channels
Sampling rate : 48.0 kHz
Compression mode : Lossy
Delay relative to video : 1 ms
Stream size : 70.8 MiB (10%)
Alignment : Split accross interleaves
Interleave, duration : 33 ms (1.00 video frame)
Interleave, preload duratio : 500 ms
Title : Audio


Трекер:  [ 09-Июн-2017 15:37 ]

  

Скачать .torrent

Размер .torrent файла 15 KB


Размер: 741 MB
Хэш (hash) релиза: 7615b12c14c049331de5dbd7a895ecea74ed2809

Еще никто не оставлял запись к записи скачать торрент Gridiron Гридирон . Будь первым!

!Обратная связь