Скачать порно через торрент S.F. Packing Co Упаковочная компания UnionPeer.org бесплатно онлайн HD качество

Скачать новое порно 2015, 2014 новинки через торрент UnionPeer.org

Порно торрент бесплатно ЮнионПир.орг

Если у вас наблюдаются проблемы со скриншотами, переходом по ссылками, скачиванием торрентов - проблемы в блокировщике рекламы AdBlock. #хорошегоДня!


Статистика раздачи
Размер:  1.07 GB   |    Зарегистрирован:  4 месяца 9 дней   |    .torrent скачан:  53 раза   |   
Раздают:  1  
   
Загрузка...
 
Автор Сообщение

Galfimbul

avatar Galfimbul



S.F. Packing Co
Упаковочная компания

Год производства:
1987 г.
Страна:
US
Жанр:
Oral, Anal Sex, Bareback, Interracial
Продолжительность:
01:14:56
Студия:
Adam and Company
Режиссер:
Frank Jeffrie
В ролях:
Chad James,David Ashfield,Frank Jeffries,Jack Spears,Max Montoya,Morgan Hunter,Randy Cochran,Mercy Hotsprings
Описание:
The work is hard at the S.F. Packing Co, so are the men. These guys put in overtime that would please the most demanding boss -- day or night! And check out the swing shift.
Качество видео:
VHSRip
Формат видео:
WMV
Видео:
WMV3, 640x480, 29.970 fps, 1 975 kbps
Аудио:
WMA, 48.0 kHz, Lossy, 64.0 kbps
Format : Windows Media
File size : 1.07 GiB
Duration : 1 h 14 min
Overall bit rate mode : Constant
Overall bit rate : 2 049 kb/s
Maximum Overall bit rate : 2 059 kb/s
Encoded date : UTC 2007-07-24 23:33:24.699

Video
ID : 2
Format : VC-1
Format profile : MP@ML
Codec ID : WMV3
Codec ID/Info : Windows Media Video 9
Codec ID/Hint : WMV3
Description of the codec : Windows Media Video 9
Duration : 1 h 14 min
Bit rate mode : Constant
Bit rate : 1 975 kb/s
Width : 640 pixels
Height : 480 pixels
Display aspect ratio : 4:3
Frame rate : 29.970 (29970/1000) FPS
Color space : YUV
Chroma subsampling : 4:2:0
Bit depth : 8 bits
Scan type : Progressive
Compression mode : Lossy
Bits/(Pixel*Frame) : 0.215
Stream size : 1.03 GiB (96%)
Language : English (United States)

Audio
ID : 1
Format : WMA
Format version : Version 2
Codec ID : 161
Codec ID/Info : Windows Media Audio
Description of the codec : Windows Media Audio 9 - 64 kbps, 48 kHz, stereo (A/V) 1-pass CBR
Duration : 1 h 14 min
Bit rate mode : Constant
Bit rate : 64.0 kb/s
Channel(s) : 2 channels
Sampling rate : 48.0 kHz
Bit depth : 16 bits
Stream size : 34.3 MiB (3%)
Language : English (United States)

[/spoier]


Трекер:  [ 09-Июн-2017 15:37 ]

  

Скачать .torrent

Размер .torrent файла 11 KB


Размер: 1.07 GB
Хэш (hash) релиза: 34bbfff046bc25c5579abbd87193eded6388ae3c

Еще никто не оставлял запись к записи скачать торрент S.F. Packing Co Упаковочная компания . Будь первым!

!Обратная связь