Скачать порно через торрент Trick Выходка UnionPeer.org бесплатно онлайн HD качество

Скачать новое порно 2015, 2014 новинки через торрент UnionPeer.org

Порно торрент бесплатно ЮнионПир.орг

Если у вас наблюдаются проблемы со скриншотами, переходом по ссылками, скачиванием торрентов - проблемы в блокировщике рекламы AdBlock. #хорошегоДня!


Статистика раздачи
Размер:  654 MB   |    Зарегистрирован:  4 месяца 7 дней   |    .torrent скачан:  32 раза   |   
Раздают:  1  
   
Загрузка...
 
Автор Сообщение

Galfimbul

avatar Galfimbul



Trick
Выходка

Год производства:
1970 г.
Страна:
US
Жанр:
Oral, Anal Sex, Bareback
Продолжительность:
00:55:43
Студия:
Le Salon
Режиссер:
Jack Cox
В ролях:
Allan Gord,Erny Vogue,George Thorne,Ted Darling
Описание:
None available
Качество видео:
VHSRip
Формат видео:
AVI
Видео:
MPEG-4, 640x480, 29.970 fps, 1 500 kbps
Аудио:
MPEG Audio, 44.1 kHz, Lossy, 128 kbps
Format : AVI
Format/Info : Audio Video Interleave
File size : 654 MiB
Duration : 55 min 43 s
Overall bit rate : 1 642 kb/s

Video
ID : 0
Format : MPEG-4 Visual
Format profile : Simple@L3
Format settings, BVOP : Yes
Format settings, QPel : No
Format settings, GMC : No warppoints
Format settings, Matrix : Default (H.263)
Codec ID : XVID
Codec ID/Hint : XviD
Duration : 55 min 43 s
Bit rate : 1 500 kb/s
Width : 640 pixels
Height : 480 pixels
Display aspect ratio : 4:3
Frame rate : 29.970 (30000/1001) FPS
Color space : YUV
Chroma subsampling : 4:2:0
Bit depth : 8 bits
Scan type : Progressive
Compression mode : Lossy
Bits/(Pixel*Frame) : 0.163
Stream size : 598 MiB (91%)

Audio
ID : 1
Format : MPEG Audio
Format version : Version 1
Format profile : Layer 3
Mode : Joint stereo
Mode extension : MS Stereo
Codec ID : 55
Codec ID/Hint : MP3
Duration : 55 min 43 s
Bit rate mode : Constant
Bit rate : 128 kb/s
Channel(s) : 2 channels
Sampling rate : 44.1 kHz
Compression mode : Lossy
Stream size : 50.9 MiB (8%)
Alignment : Aligned on interleaves
Interleave, duration : 26 ms (0.78 video frame)
Writing library : LAME3.97

[/spoier]


Трекер:  [ 09-Июн-2017 15:37 ]

  

Скачать .torrent

Размер .torrent файла 13 KB


Размер: 654 MB
Хэш (hash) релиза: e49ea9a98f11cc96fd77dc4dd795a40a20555e22

Еще никто не оставлял запись к записи скачать торрент Trick Выходка . Будь первым!

!Обратная связь