Скачать порно через торрент Best Of Times Лучшие времена UnionPeer.org бесплатно онлайн HD качество

Скачать новое порно 2015, 2014 новинки через торрент UnionPeer.org

Порно торрент бесплатно ЮнионПир.орг

Если у вас наблюдаются проблемы со скриншотами, переходом по ссылками, скачиванием торрентов - проблемы в блокировщике рекламы AdBlock. #хорошегоДня!


Статистика раздачи
Размер:  525 MB   |    Зарегистрирован:  2 месяца 9 дней   |    .torrent скачан:  35 раз   |   
Раздают:  2  
   
Загрузка...
 
Автор Сообщение

Galfimbul

avatar Galfimbul



Best Of Times
Лучшие времена

Год производства:
1986 г.
Страна:
US
Жанр:
Oral,Anal Sex,Bareback
Продолжительность:
01:09:48
Студия:
Rock Hard Video
Режиссер:
Stephen Lucas
В ролях:
Chaz (Holderman,Dane Ford,Greg Dale,Jeff Bentley,Kurt Fox,Mathew Wilde,Michael Wayne,Nik Carrington,Tex Anthony
Описание:
You''ll be aroused by these tempting and tantalizing, sturdy young lads as they reveal their hottest fantasies and watch as they "cum" to life. It''s exciting, non-stop, man-to-man action that''ll have your mouth watering and your eyes yearning for more!
Качество видео:
VHSRip
Формат видео:
AVI
Видео:
mp42 , 352x240, 23.976 fps,992 kb/s
Аудио:
MPEG Audio, 44.1 kHz, Lossy, 48.0 kb/s
Format : AVI
Format/Info : Audio Video Interleave
File size : 525 MiB
Duration : 1 h 9 min
Overall bit rate : 1 052 kb/s
Writing application : Lavf55.19.104

Video
ID : 0
Format : xvid
Codec ID : xvid
Duration : 1 h 9 min
Bit rate : 992 kb/s
Width : 352 pixels
Height : 240 pixels
Display aspect ratio : 3:2
Frame rate : 23.976 (24000/1001) FPS
Scan type : Progressive
Bits/(Pixel*Frame) : 0.490
Stream size : 495 MiB (94%)

Audio
ID : 1
Format : MPEG Audio
Format version : Version 1
Format profile : Layer 3
Mode : Joint stereo
Mode extension : MS Stereo
Codec ID : 55
Codec ID/Hint : MP3
Duration : 1 h 9 min
Bit rate mode : Constant
Bit rate : 48.0 kb/s
Channel(s) : 2 channels
Sampling rate : 44.1 kHz
Compression mode : Lossy
Stream size : 24.0 MiB (5%)
Alignment : Aligned on interleaves
Interleave, duration : 26 ms (0.63 video frame)
Interleave, preload duratio : 130 ms


Трекер:  [ 09-Июн-2017 15:37 ]

  

Скачать .torrent

Размер .torrent файла 11 KB


Размер: 525 MB
Хэш (hash) релиза: f9ebacbf30fd886e203f8c1c6a8b9c1f0f5b3617

Еще никто не оставлял запись к записи скачать торрент Best Of Times Лучшие времена . Будь первым!

!Обратная связь