Скачать порно через торрент Down Under Под нами UnionPeer.org бесплатно онлайн HD качество

Скачать новое порно 2015, 2014 новинки через торрент UnionPeer.org

Порно торрент бесплатно ЮнионПир.орг

Если у вас наблюдаются проблемы со скриншотами, переходом по ссылками, скачиванием торрентов - проблемы в блокировщике рекламы AdBlock. #хорошегоДня!


Статистика раздачи
Размер:  1.36 GB   |    Зарегистрирован:  5 месяцев 8 дней   |    .torrent скачан:  37 раз   |   
Раздают:  1  
   
Загрузка...
 
Автор Сообщение

Galfimbul

avatar Galfimbul



Down Under
Под нами

Год производства:
1989 г.
Страна:
US
Жанр:
Oral, Anal Sex, Bareback
Продолжительность:
01:28:03
Студия:
William Higgins Productions, Catalina Video
Режиссер:
William Higgins
В ролях:
Allan Forrest, Christopher Ryan, Dave Elliot, James Nicholson, Michael Dante, Paul Watson, Robert Sherman, Teddy Andersen, Tim Lowe
Описание:
Go way down with the master William Higgins, and discover all the erotic man-splendor being down under has to offer.
Shot entirely on location in Austrailia, this video proves that hard-pounding all-male action is extra sweaty the Aussie-way. Hot Aussie Men. Hung Aussie meat. Oh, how Aussie sweet.
Качество видео:
VHSRip
Формат видео:
MPEG-4
Видео:
mp42, 720x544, 29.970 fps, 2 068 kbps
Аудио:
AAC, 44.1 kHz, Lossy, 206 kbps
Format : MPEG-4
Format profile : Base Media / Version 2
Codec ID : mp42 (mp42)
File size : 1.36 GiB
Duration : 1 h 28 min
Overall bit rate mode : Variable
Overall bit rate : 2 205 kb/s
Codirector : codirector
Production studio : studio
ContentType : Unknown Type
Encoded date : UTC 2016-10-03 15:50:51
Tagged date : UTC 2016-10-03 15:51:12

Video
ID : 1
Format : AVC
Format/Info : Advanced Video Codec
Format profile : Baseline@L3
Format settings, CABAC : No
Format settings, ReFrames : 1 frame
Muxing mode : Container profile=Baseline@4.1
Codec ID : avc1
Codec ID/Info : Advanced Video Coding
Duration : 1 h 28 min
Bit rate : 2 068 kb/s
Width : 720 pixels
Height : 544 pixels
Display aspect ratio : 4:3
Frame rate mode : Constant
Frame rate : 29.970 (30000/1001) FPS
Original frame rate : 29.000 FPS
Color space : YUV
Chroma subsampling : 4:2:0
Bit depth : 8 bits
Scan type : Progressive
Bits/(Pixel*Frame) : 0.176
Stream size : 1.27 GiB (94%)
Language : English
Menus : 3

Audio
ID : 2
Format : AAC
Format/Info : Advanced Audio Codec
Format profile : LC
Codec ID : 40
Duration : 1 h 28 min
Source duration : 1 h 28 min
Bit rate mode : Variable
Bit rate : 128 kb/s
Maximum bit rate : 206 kb/s
Channel(s) : 2 channels
Channel positions : Front: L R
Sampling rate : 44.1 kHz
Frame rate : 43.066 FPS (1024 spf)
Compression mode : Lossy
Stream size : 80.6 MiB (6%)
Source stream size : 80.6 MiB (6%)
Title : Stereo
Language : English
Default : Yes
Alternate group : 1

Menu
ID : 3
Codec ID : text
Duration : 1 h 24 min
Encoded date : UTC 2016-10-03 15:51:12
Tagged date : UTC 2016-10-03 15:51:12
Menu For : 1
00:00:00.000 : Chapter 1
00:02:25.000 : Chapter 2
00:15:27.000 : Chapter 3
00:16:55.000 : Chapter 4
00:26:54.000 : Chapter 5
00:29:40.000 : Chapter 6
00:45:19.000 : Chapter 7
00:46:07.000 : Chapter 8
01:03:30.000 : Chapter 9
01:04:43.000 : Chapter 10
01:17:36.000 : Chapter 11
01:18:51.000 : Chapter 12
01:24:20.000 : Chapter 13
Bit rate mode : VBR


Трекер:  [ 09-Июн-2017 15:37 ]

  

Скачать .torrent

Размер .torrent файла 14 KB


Размер: 1.36 GB
Хэш (hash) релиза: 5e11326dee3f607727621cf56d1d3e1a681cfcf3

Еще никто не оставлял запись к записи скачать торрент Down Under Под нами . Будь первым!

!Обратная связь