Скачать через торрент Закусочная Боба Бургеры Боба Фильм бесплатно в хорошем качестве torrent

Скачивайте на UnionPeer.org фильмы через торрент без регистрации. Новинки кино в хорошем качестве через торрент. На UnionPeer.org можно скачать через торрент фильмы 2014 и 2015 годов. Самые новые фильмы.

Скачать торрент Закусочная Боба Бургеры Боба бесплатно через .torrent фильм мультфильм сериал

Если у вас наблюдаются проблемы со скриншотами, переходом по ссылками, скачиванием торрентов - проблемы в блокировщике рекламы AdBlock. #хорошегоДня!


Статистика раздачи
Размер:  3.52 GB   |    Зарегистрирован:  3 месяца 12 дней   |    .torrent скачан:  16 раз   |   
Раздают:  1  
   
Загрузка...
 
Автор Сообщение

Galfimbul

avatar Galfimbul


Закусочная Боба / Бургеры БобаBob's Burgers[img=right:PDXNVHxV1D]
Warning: imagecreatefromjpeg(): gd-jpeg, libjpeg: recoverable error: 
in /home/youpic/public_html/poster_overflow.php on line 94

Warning: imagecreatefromjpeg(): gd-jpeg, libjpeg: recoverable error: 
in /home/youpic/public_html/poster_overflow.php on line 94
http://s010.youpic.su/pictures/1496959200/ac313cb8d.../img:PDXNVHxV1D]
Оригинальное название: Bob's Burgers
Год выпуска: 2011 г.
Страна: США
Жанр: мультфильм, комедия
Сезон: 1-3
Кол-во серий: 45 из 45
Продолжительность серии: ~ 22 мин.Перевод:

Многоголосый закадровый 2х2

Субтитры: нетРежиссер: Лорен Бочар / Loren Bouchard

В ролях: Х. Джон Бенжамин, Дэн Минтц, Юджин Мирман, Джон Робертс, Кристен Шаал, Ларри Мерфи, Дэвид Херман, Энди Кайндлер, Сара Силверман, Бобби ТисдэйлОписание: Главный персонаж сериала — Боб. Он владеет небольшой закусочной, где продают гамбургеры. Боб занимается бизнесом со своей семьей. Помогают ему жена-истеричка и трое детей, которые больше мешают процветанию дела Боба.



Качество видео: HDRip
Формат: MP4
Видео кодек: H.264
Аудио кодек: AAC
Видео: 480x272 (16:9), 25.000 fps, x264 ~440 kbps avg, 0.142 bit/pixel
Аудио: AAC-LC VBR 2 channels, 48.0 KHz ~72 Kbps Многоголосый закадровый 2х2
E:\01 - Human Flesh.mp4
  General
    Complete name : E:\01 - Human Flesh.mp4
    Format : MPEG-4
    Format profile : Base Media
    Codec ID : isom
    File size : 80.1 MiB
    Duration : 21mn 37s
    Overall bit rate mode : Variable
    Overall bit rate : 518 Kbps
    Encoded date : UTC 2016-10-17 07:06:53
    Tagged date : UTC 2016-10-17 07:06:53
  Video #1
    ID : 1
    Format : AVC
    Format/Info : Advanced Video Codec
    Format profile : Main@L3.0
    Format settings, CABAC : Yes
    Format settings, ReFrames : 3 frames
    Codec ID : avc1
    Codec ID/Info : Advanced Video Coding
    Duration : 21mn 37s
    Bit rate : 442 Kbps
    Maximum bit rate : 3 161 Kbps
    Width : 480 pixels
    Height : 272 pixels
    Display aspect ratio : 16:9
    Frame rate mode : Constant
    Frame rate : 23.976 fps
    Color space : YUV
    Chroma subsampling : 4:2:0
    Bit depth : 8 bits
    Scan type : Progressive
    Bits/(Pixel*Frame) : 0.141
    Stream size : 68.4 MiB (85%)
    Title : 264@GPAC0.5.2-DEV-rev248-g39d5978-master
    Writing library : x264 core 146 r2538 121396c
    Encoding settings : cabac=1 / ref=3 / deblock=1:-1:-1 / analyse=0x1:0x131 / me=umh / subme=7 / psy=1 / psy_rd=1.00:0.20 / mixed_ref=1 / me_range=16 / chroma_me=1 / trellis=2 / 8x8dct=0 / cqm=0 / deadzone=21,11 / fast_pskip=0 / chroma_qp_offset=-3 / threads=12 / lookahead_threads=2 / sliced_threads=0 / nr=0 / decimate=0 / interlaced=0 / bluray_compat=0 / constrained_intra=0 / bframes=3 / b_pyramid=0 / b_adapt=2 / b_bias=0 / direct=3 / weightb=1 / open_gop=0 / weightp=2 / keyint=250 / keyint_min=23 / scenecut=40 / intra_refresh=0 / rc_lookahead=60 / rc=2pass / mbtree=1 / bitrate=442 / ratetol=1.0 / qcomp=0.60 / qpmin=0 / qpmax=69 / qpstep=4 / cplxblur=20.0 / qblur=0.5 / ip_ratio=1.40 / aq=1:1.00
    Encoded date : UTC 2016-10-17 07:06:53
    Tagged date : UTC 2016-10-17 07:06:55
  Audio #2
    ID : 2
    Format : AAC
    Format/Info : Advanced Audio Codec
    Format profile : LC
    Codec ID : 40
    Duration : 21mn 37s
    Bit rate mode : Variable
    Bit rate : 72.0 Kbps
    Maximum bit rate : 90.7 Kbps
    Channel(s) : 2 channels
    Channel positions : Front: L R
    Sampling rate : 48.0 KHz
    Compression mode : Lossy
    Delay relative to video : 83ms
    Stream size : 11.1 MiB (14%)
    Encoded date : UTC 2016-10-17 07:02:18
    Tagged date : UTC 2016-10-17 07:06:55


Трекер:  [ 09-Июн-2017 03:12 ]

  

Скачать .torrent

Размер .torrent файла 21 KB


Размер: 3.52 GB
Хэш (hash) релиза: 25dc2394ad5537531eab893e0d9942fae48642ff
Подписка на обновления:

Торренты, похожие на Закусочная Боба Бургеры Боба скачать торрент

Форум Название Автор Размер S L Добавлен
Мультсериалы ·· Закусочная Боба / Бургеры Боба / Bob's Burgers / Сезон: 6 / Серии: 1-8 (22) (Лорен Бучард / Loren Bouchard) [2015, Комедия, WEB-DL 1080p] + Subs (Rus, Eng) Galfimbul 68083833716.34 GB 0 0 1483294600

21:16

1-Янв-17

Мультсериалы ·· Закусочная Боба / Бургеры Боба / Bob's Burgers / Сезон: 6 / Серии: 1-8 (22) (Лорен Бучард / Loren Bouchard) [2015, Комедия, WEB-DL 720p] + Subs (Rus, Eng) Galfimbul 53387668004.97 GB 0 0 1483294583

21:16

1-Янв-17

Мультсериалы ·· Закусочная Боба / Бургеры Боба / Bob's Burgers / Сезон: 6 / Серии: 1-6, 8 (22) (Лорен Бучард / Loren Bouchard) [2015, Комедия, WEB-DL 1080p] + Sub (Rus, Eng) Galfimbul 59204311855.51 GB 0 0 1483208018

21:13

31-Дек-16

Мультсериалы ·· Закусочная Боба / Бургеры Боба / Bob's Burgers / Сезон: 6 / Серии: 1-6, 8 (22) (Лорен Бучард / Loren Bouchard) [2015, Комедия, WEB-DL 720p] + Sub (Rus, Eng) Galfimbul 46209315394.3 GB 0 0 1483208014

21:13

31-Дек-16

PSP | Мультфильмы ·· Закусочная Боба / Бургеры Боба / Bob's Burgers (Лорен Бочар / Loren Bouchard) [Сезоны 1-2] [21 из 22] [2011, анимация, комедия; HDRip] MVO (2x2) Galfimbul 17640079061.64 GB 0 0 1476732425

22:27

17-Окт-16

PSP | Cериалы ·· Закусочная Боба / Бургеры Боба / Bob's Burgers (Лорен Бочар / Loren Bouchard) [Сезон 1] [12 bp 13] [2011, анимация, комедия; HDRip] MVO (2x2) Galfimbul 1007895587961 MB 0 0 1476695057

12:04

17-Окт-16

Мультсериалы ·· Закусочная Боба / Бургеры Боба / Bob's Burgers / Сезон: 4 / Серии: 1-2 из 22 (Лорен Бушар) [2013 г., ситком, мультфильм, HDTVRip] DVO (SNK-TV) + Original + Rus Subs Galfimbul 451377931430 MB 0 0 1450612966

15:02

20-Дек-15

Мультсериалы ·· Закусочная Боба / Бургеры Боба / Bob's Burgers / Сезон: 4 / Серии: 1-2 из 22 (Лорен Бушар) [2013 г., ситком, мультфильм, HDTVRip 720p] DVO (SNK-TV) + Original + Rus Subs Galfimbul 610071709582 MB 0 0 1450612956

15:02

20-Дек-15

Мультсериалы ·· Закусочная Боба / Бургеры Боба / Bob's Burgers / Сезон: 4 / Серии: 1-2 из 22 (Лорен Бушар [2013 г., ситком, мультфильм, HDTVRip 720p] DVO (SNK-TV) + Original + Rus Subs Galfimbul 610071886582 MB 0 0 1450548200

21:03

19-Дек-15

Мультсериалы ·· Закусочная Боба / Бургеры Боба / Bob's Burgers / Сезон: 4 / Серии: 1-2 из 22 (Лорен Бушар [2013 г., ситком, мультфильм, HDTVRip] DVO (SNK-TV) + Original + Rus Subs Galfimbul 459201795438 MB 0 0 1450548188

21:03

19-Дек-15

Мультсериалы ·· Закусочная Боба / Бургеры Боба / Bob's Burgers / Сезон: 3 / Серии: 1-23 (23) (Лорен Бучард / Loren Bouchard) [2012, Комедия, WEB-DL 720p] MVO [2x2] + Sub (Rus, Eng) Galfimbul 1233045184811.48 GB 0 0 1448392898

22:21

24-Ноя-15

Мультсериалы ·· Закусочная Боба / Бургеры Боба / Bob's Burgers / Сезон: 3 / Серии: 1-23 (23) (Лорен Бучард / Loren Bouchard) [2012, Комедия, WEB-DL 1080p] MVO [2x2] + Sub (Rus, Eng) Galfimbul 2084344091819.41 GB 0 0 1448392892

22:21

24-Ноя-15

Мультсериалы ·· Закусочная Боба / Бургеры Боба / Bob's Burgers / Сезон: 6 / Серии: 1-5 (22) (Лорен Бучард / Loren Bouchard) [2015, Комедия, WEB-DL 1080p] + Sub (Rus, Eng) Galfimbul 43087575744.01 GB 0 0 1448145157

01:32

22-Ноя-15

Мультсериалы ·· Закусочная Боба / Бургеры Боба / Bob's Burgers / Сезон: 6 / Серии: 1-5 (22) (Лорен Бучард / Loren Bouchard) [2015, Комедия, WEB-DL 720p] + Sub (Rus, Eng) Galfimbul 32707865423.05 GB 0 0 1448145151

01:32

22-Ноя-15

Мультсериалы ·· Закусочная Боба / Бургеры Боба / Bob's Burgers / Сезон: 6 / Серии: 1-4 (22) (Лорен Бучард / Loren Bouchard) [2015, Комедия, WEB-DL 720p] + Sub (Rus, Eng) Galfimbul 25701754552.39 GB 0 0 1447970504

01:01

20-Ноя-15

Мультсериалы ·· Закусочная Боба / Бургеры Боба / Bob's Burgers / Сезон: 6 / Серии: 1-4 (22) (Лорен Бучард / Loren Bouchard) [2015, Комедия, WEB-DL 1080p] + Sub (Rus, Eng) Galfimbul 34095075053.18 GB 0 0 1447970499

01:01

20-Ноя-15

Мультсериалы ·· Закусочная Боба / Бургеры Боба / Bob's Burgers / Сезон: 6 / Серии: 1-3 (22) (Лорен Бучард / Loren Bouchard) [2015, Комедия, WEB-DL 1080p] + Sub (Rus, Eng) Galfimbul 24996298642.33 GB 0 0 1445897948

01:19

27-Окт-15

Мультсериалы ·· Закусочная Боба / Бургеры Боба / Bob's Burgers / Сезон: 6 / Серии: 1-3 (22) (Лорен Бучард / Loren Bouchard) [2015, Комедия, WEB-DL 720p] + Sub (Rus, Eng) Galfimbul 18757891681.75 GB 0 0 1445897944

01:19

27-Окт-15

Мультсериалы ·· Закусочная Боба / Бургеры Боба / Bob's Burgers / Сезон: 6 / Серии: 1-2 (22) (Лорен Бучард / Loren Bouchard) [2015, Комедия, WEB-DL 720p] + Sub (Rus, Eng) Galfimbul 11701180641.09 GB 0 0 1445207549

01:32

19-Окт-15

Еще никто не оставлял запись к записи скачать торрент Закусочная Боба Бургеры Боба . Будь первым!

!Обратная связь