Скачать через торрент Казань в 3Д Kazan 3D Фильм бесплатно в хорошем качестве torrent

Скачивайте на UnionPeer.org фильмы через торрент без регистрации. Новинки кино в хорошем качестве через торрент. На UnionPeer.org можно скачать через торрент фильмы 2014 и 2015 годов. Самые новые фильмы.

Скачать торрент Казань в 3Д Kazan 3D бесплатно через .torrent фильм мультфильм сериал

Если у вас наблюдаются проблемы со скриншотами, переходом по ссылками, скачиванием торрентов - проблемы в блокировщике рекламы AdBlock. #хорошегоДня!


Статистика раздачи
Размер:  1.88 GB   |    Зарегистрирован:  4 месяца 9 дней   |    .torrent скачан:  23 раза   |   
Раздают:  1  
   
Загрузка...
 
Автор Сообщение

Galfimbul

avatar Galfimbul


Казань в 3D / Kazan 3D

Год выпуска: 2015
Страна: Россия
Студия: А-студия
Жанр: Документальный
Продолжительность: 00:11:02

Русские субтитры: нет
Режиссер на русском: Lllexxx
Описание: Казань - третий по популярности у туристов город России. Год основания города - 1005. В фильме мы увидим Казанский Кремль, пешеходную улицу Баумана с её достопримечательностями, Старо-Татарскую слободу, площадь Свободы, Казанскую ярмарку и Казанское метро.

Бонусы: Другие раздачи:
"Галопом по Европам в 3D"
"Итальянский калейдоскоп в 3D"
"Вылазка в Прибалтику в 3D"
"ФРАНЦИЯ - тур морской волны в 3D"
"ИСПАНИЯ - берега мечты в 3D"
"КРЫМ НАШ! Весна в Ялте в 3D"

Качество: HDTV
Контейнер: TS
Формат 3D: Half SideBySide / Горизонтальная анаморфная стереопара
Порядок ракурсов: левый ракурс первый
Видео кодек: h.264
Аудио кодек: AC3
Видео: H.264/AVC, 24,3 Мбит/сек, 1920х1080, 16:9, 25 кадров/сек. (PAL)
Аудио: Dolby Digital, 16 бит, 6 каналов, 48 кГц, 384 Кбит/сек
Общее
Идентификатор : 1 (0x1)
Полное имя : F:\Видео\Домашнее видео\Видео в 3D\Казань.mts
Формат : BDAV
Формат/Информация : Blu-ray Video
Размер файла : 1,88 Гбайт
Продолжительность : 11 м.
Режим общего битрейта : Переменный
Общий поток : 24,3 Мбит/сек
Максимальный общий битрейт : 28,8 Мбит/сек

Видео
Идентификатор : 4113 (0x1011)
Идентификатор меню : 1 (0x1)
Формат : AVC
Формат/Информация : Advanced Video Codec
Профиль формата : High@L4.1
Параметр CABAC формата : Да
Параметр ReFrames формата : 2 кадра
Параметр GOP формата : M=2, N=15
Идентификатор кодека : 27
Продолжительность : 11 м.
Вид битрейта : Переменный
Битрейт : 23,0 Мбит/сек
Максимальный битрейт : 24,0 Мбит/сек
Ширина : 1920 пикселей
Высота : 1080 пикселей
Соотношение сторон : 16:9
Частота кадров : 25,000 кадров/сек
Цветовое пространство : YUV
Субдискретизация насыщенности : 4:2:0
Битовая глубина : 8 бит
Тип развёртки : Чересстрочная
Порядок развёртки : Верхнее поле первое
Бит/(Пиксели*Кадры) : 0.443
Размер потока : 1,77 Гбайт (94%)

Аудио
Идентификатор : 4352 (0x1100)
Идентификатор меню : 1 (0x1)
Формат : AC-3
Формат/Информация : Audio Coding 3
Расширение режима : CM (complete main)
Параметр Endianness формата : Big
Идентификатор кодека : 129
Продолжительность : 11 м.
Вид битрейта : Постоянный
Битрейт : 384 Кбит/сек
Каналы : 6 каналов
Расположение каналов : Front: L C R, Side: L R, LFE
Частота : 48,0 КГц
Битовая глубина : 16 бит
Метод сжатия : С потерями
Размер потока : 30,3 Мбайт (2%)


Трекер:  [ 09-Июн-2017 02:01 ]

  

Скачать .torrent

Размер .torrent файла 19 KB


Размер: 1.88 GB
Хэш (hash) релиза: d75f1c7145d1893d26b5c3ef4f9e83bd02b733fd
Подписка на обновления:

Еще никто не оставлял запись к записи скачать торрент Казань в 3Д Kazan 3D . Будь первым!

!Обратная связь