Скачать через торрент Голубая мечта Грана Granblue Fantasy The Animation бесплатно Аниме Все серии на русском torrent

Если у вас наблюдаются проблемы со скриншотами, переходом по ссылками, скачиванием торрентов - проблемы в блокировщике рекламы AdBlock. #хорошегоДня!


Статистика раздачи
Размер:  3.75 GB   |    Зарегистрирован:  3 месяца 10 дней   |    .torrent скачан:  8 раз   |   
Раздают:  1  
   
Загрузка...
 
Автор Сообщение

Galfimbul

avatar Galfimbul


Голубая мечта Грана / Granblue Fantasy The Animation
Страна: Япония
Год выпуска: 2017 г.
Тип: TV
Жанр: Приключения, фэнтези
Продолжительность: 12 эп. по 25 минРусские субтитры: SovetRomantica
Перевод: Alexis
Редактура: Steamir
QC: AngaraРусские субтитры: AniPlay
Перевод & редактура: Alicepsyx & ShiYoru.

Режиссер: Ито Юки

Студия:

Описание: В один прекрасный день жизнь простого паренька по имени Гран перевернулась с ног на голову. Хотя можно ли назвать простым парня, который дружит с говорящей летающей ящерицей по имени Вирн и живёт на летающем острове Зинкенстилл? Тем не менее, именно таков мир в нашей истории, и в нём это вполне обычно. Итак, наш Гран однажды замечает в лесу неподалёку странное свечение. Любопытство берёт верх, и парень бежит узнавать неизведанное, роняя тапки. Перебрав по пути кучу версий, он обнаруживает совсем неожиданный исход: причиной переполоха оказалась девушка Лурия.

А вот она оказалась совсем не простой. Мало того, что Лурия приземлилась в лес, упав с боевого корабля, так у неё ещё и сверхспособности, и на Лурию объявлена охота. И гонятся за ней не абы кто, а сами солдаты Империи Эрст. Но у девушки есть своя защитница, лейтенант Каталина, которая и организовала побег. Слово за слово, и вот Гран и Вирн уже несутся помогать беглянкам, браво размахивая мечом. Да только силы не рассчитали, и пал Гран в бою смертью храбрых. Но не даром же Лурия рядом, Гран не только воскрес, но вдобавок обрёл силу неведомую. Вот тебе и сходил за хлебушком.

Качество: HDTVRip | Равка: Leopard-Raws Формат: mp4 | Тип Видео: без хардсаба
Видео: х264, 8 bits, 1280x720, 2866 kbps, 23.976 fps, (16:9)
JP - AAC, 192 kbps, 48.0 KHz, 2 ch Язык Японский
01.Girl in Blue
02. Departure
03. Meet the Wind
04. A Helmsman`s Resolve
05. The Storm Guardian
06. The Veil Is Lifted
07. The Iron Giant
08. A Pair Apart
09. Horizon in the Clouds
10. Separation
Общее
Полное имя : D:\[Leopard-Raws]\[Leopard-Raws] Granblue Fantasy The Animation\[Leopard-Raws] Granblue Fantasy The Animation - 01 RAW (BS11 1280x720 x264 AAC).mp4
Формат : MPEG-4
Профиль формата : Base Media
Идентификатор кодека : isom
Размер файла : 525 Мбайт
Продолжительность : 23 м.
Режим общего битрейта : Переменный
Общий поток : 3061 Кбит/сек
Дата кодирования : UTC 2017-04-02 11:19:15
Дата пометки : UTC 2017-04-02 11:19:15

Видео
Идентификатор : 1
Формат : AVC
Формат/Информация : Advanced Video Codec
Профиль формата : High@L4.1
Параметр CABAC формата : Да
Параметр ReFrames формата : 4 кадра
Идентификатор кодека : avc1
Идентификатор кодека/Информация : Advanced Video Coding
Продолжительность : 23 м.
Битрейт : 2866 Кбит/сек
Максимальный битрейт : 16,4 Мбит/сек
Ширина : 1280 пикселей
Высота : 720 пикселей
Соотношение сторон : 16:9
Режим частоты кадров : Постоянный
Частота кадров : 23,976 кадра/сек
Цветовое пространство : YUV
Субдискретизация насыщенности : 4:2:0
Битовая глубина : 8 бит
Тип развёртки : Прогрессивная
Бит/(Пиксели*Кадры) : 0.130
Размер потока : 492 Мбайт (94%)
Заголовок : 264:fps=23.976@GPAC0.5.2-DEV-rev376-g5eeb74d-master
Библиотека кодирования : x264 core 129 r2245+729M 1a52e03
Настройки программы : cabac=1 / ref=4 / deblock=1:1:-1 / analyse=0x3:0x113 / me=umh / subme=9 / psy=1 / fade_compensate=0.00 / psy_rd=1.00:0.00 / mixed_ref=1 / me_range=24 / chroma_me=1 / trellis=2 / 8x8dct=1 / cqm=0 / deadzone=21,11 / fast_pskip=1 / chroma_qp_offset=-2 / threads=8 / lookahead_threads=1 / sliced_threads=0 / nr=0 / decimate=1 / interlaced=0 / bluray_compat=0 / constrained_intra=0 / fgo=0 / bframes=9 / b_pyramid=2 / b_adapt=2 / b_bias=0 / direct=1 / weightb=1 / open_gop=0 / weightp=2 / keyint=240 / keyint_min=24 / scenecut=40 / intra_refresh=0 / rc=crf / mbtree=0 / crf=17.5 / qcomp=0.72 / qpmin=0 / qpmax=69 / qpstep=4 / ip_ratio=1.40 / pb_ratio=1.30 / aq=1:0.85
Дата кодирования : UTC 2017-04-02 11:19:15
Дата пометки : UTC 2017-04-02 11:19:19
Основные цвета : BT.709
Характеристики трансфера : BT.709
Коэффициенты матрицы : BT.709

Аудио
Идентификатор : 2
Формат : AAC
Формат/Информация : Advanced Audio Codec
Профиль формата : LC
Идентификатор кодека : 40
Продолжительность : 23 м.
Вид битрейта : Переменный
Битрейт : 192 Кбит/сек
Максимальный битрейт : 229 Кбит/сек
Каналы : 2 канала
Расположение каналов : Front: L R
Частота : 48,0 КГц
Метод сжатия : С потерями
Размер потока : 32,9 Мбайт (6%)
Язык : Japanese
Дата кодирования : UTC 2017-04-01 21:24:05
Дата пометки : UTC 2017-04-02 11:19:19


Обновите торент файл, добавлена 10я серия

Трекер:  [ 09-Июн-2017 02:01 ]

  

Скачать .torrent

Размер .torrent файла 22 KB


Размер: 3.75 GB
Хэш (hash) релиза: fadc7cd903ed1ce02121263ccd8f17a7dfc11d7b
Подписка на обновления:

Торренты, похожие на Голубая мечта Грана Granblue Fantasy The Animation скачать торрент

Форум Название Автор Размер S L Добавлен
Аниме | Rips ·· Повесть о небесных островах / Голубая мечта Грана / Granblue Fantasy The Animation [TV] [01-08 из 13] [Без хардсаба] [RUS(int), JAP+SUB] [2017, приключения, фэнтези, HDTVRip] [HWP] Galfimbul 25152939212.34 GB 0 0 1496963625

02:13

9-Июн-17

Аниме | Rips ·· Повесть о небесных островах / Голубая мечта Грана / Granblue Fantasy The Animation [TV] [01-07 из 13] [Без хардсаба] [RUS(int), JAP+SUB] [2017, приключения, фэнтези, HDTVRip] [HWP] Galfimbul 22312499162.08 GB 0 0 1495708752

13:39

25-Май-17

Аниме | HD Rips ·· Голубая мечта Грана / Granblue Fantasy The Animation (Ито Юки) [TV] [2 из 12] [без хардсаба] [RUS(ext), JAP+SUB] [2017, фэнтези, BDRip] [720p] Galfimbul 12812600991.19 GB 0 0 1494185980

22:39

7-Май-17

Аниме | HD Rips ·· Голубая мечта Грана / Granblue Fantasy The Animation (Ито Юки) [TV] [5 из 12] [Без хардсаба] [JAP+SUB] [2017, приключения, фэнтези HDTVRip] [720p] Galfimbul 22358257082.08 GB 0 0 1493539565

11:06

30-Апр-17

Аниме | HD Rips ·· Голубая мечта Грана / Granblue Fantasy The Animation (Ито Юки) [TV] [2 из 12] [Без хардсаба] [JAP+SUB] [2017, приключения, фэнтези BDRip] [1080p] Galfimbul 38491586193.58 GB 0 0 1493401812

20:50

28-Апр-17

Еще никто не оставлял запись к записи скачать торрент Голубая мечта Грана Granblue Fantasy The Animation . Будь первым!

!Обратная связь