Скачать через торрент Не скрывая крик Fukumenkei Noise бесплатно Аниме Все серии на русском torrent

Если у вас наблюдаются проблемы со скриншотами, переходом по ссылками, скачиванием торрентов - проблемы в блокировщике рекламы AdBlock. #хорошегоДня!


Статистика раздачи
Размер:  2.99 GB   |    Зарегистрирован:  3 месяца 10 дней   |    .torrent скачан:  6 раз   |   
Раздают:  1  
   
Загрузка...
 
Автор Сообщение

Galfimbul

avatar Galfimbul


Страна: Япония
Год выпуска: 2017 г.
Жанр: музыка, романтика, сёдзе
Продолжительность: TV Сериал, 12 эп. по 25 мин.Перевод:

субтитры от Sovet Romantica (полные/надписи)
перевод: KronosHunter, редакция: Steamir, WolteR

Озвучка:

трёхголосая от от Sad_Kit, KingMaster & Milirina (Anything Group)

Режиссер: Хидэя Такахаси
Студия: Brains BaseОписание: Девочка Нино и мальчик Момо с детства хорошие друзья и любят вместе петь. К несчастью, Момо вместе со своей семьей переезжает, и Нино полностью теряет контакт со своим другом. Позднее она встречает другого мальчика по имени Канадэ Юзуриха, юного композитора школьной группы, который постоянно занят написанием нот к своим песням. Он начинает подбадривать расстроенную Нино и позволяет петь ей свои песни. Очарованный ее пением, Канадэ влюбляется в Нино. Но через некоторое время неожиданно пропадает и Юзу.
Спустя несколько лет Нино поступает в старшую школу, и там на вступительной церемонии она встречает Момо и Юзу. © UrAgAnChIkСсылки: AniDB || World Art || MALКачество: HDTVRip
Автор рипа: Leopard-Raws
Тип релиза: без хардсаба
Формат видео: mkv
Видео: x264 (8bit), 1280x720, ~2200kbps, 23.976fps
Аудио (int) rus : AAC, 192kbps, 48000Hz, 2ch
Аудио (int) jap : AAC, 192kbps, 48000Hz, 2ch
01. Мы скрываем наши истинные чувсвтва
02. Боже, молю, чтобы любовь Алисы никогда не вернулась
03. Несмотря ни на что
04. В тот день те, кто скрывал истинные чувства, взялись за руки
05. Мне бы не пришлось видеть такую улыбку на твоём лице
06. Сегодня и завтра мы будем идти вперёд
07. Наши взгляды наконец-то встретились
08. Я буду твоим другом, клянусь
От раздачи MERDOK

Наличие озвучки
<div class="sp-wrap">
<div class="sp-head folded">MediaInfo</div>
<div class="sp-body">

GeneralUnique ID : 254725869625403273767589889192359786801 (0xBFA26B0188D3BF03B6A559815FAE7931)Complete name : C:\Users\sergei\YandexDisk\noise - 01.mkvFormat : MatroskaFormat version : Version 4 / Version 2File size : 445 MiBDuration : 24mn 14sOverall bit rate : 2 568 KbpsEncoded date : UTC 2017-04-14 04:50:31Writing application : mkvmerge v9.8.0 ('Kuglblids') 64bitWriting library : libebml v1.3.4 + libmatroska v1.4.5

VideoID : 1Format : AVCFormat/Info : Advanced Video CodecFormat profile : High@L4.1Format settings, CABAC : YesFormat settings, ReFrames : 4 framesCodec ID : V_MPEG4/ISO/AVCDuration : 24mn 14sBit rate : 2 181 KbpsWidth : 1 280 pixelsHeight : 720 pixelsDisplay aspect ratio : 16:9Frame rate mode : ConstantFrame rate : 23.976 (24000/1001) fpsColor space : YUVChroma subsampling : 4:2:0Bit depth : 8 bitsScan type : ProgressiveBits/(Pixel*Frame) : 0.099Stream size : 378 MiB (85%)Title : noise - 01Writing library : x264 core 129 r2245+729M 1a52e03Encoding settings : cabac=1 / ref=4 / deblock=1:1:-1 / analyse=0x3:0x113 / me=umh / subme=9 / psy=1 / fade_compensate=0.00 / psy_rd=1.00:0.00 / mixed_ref=1 / me_range=24 / chroma_me=1 / trellis=2 / 8x8dct=1 / cqm=0 / deadzone=21,11 / fast_pskip=1 / chroma_qp_offset=-2 / threads=8 / lookahead_threads=1 / sliced_threads=0 / nr=0 / decimate=1 / interlaced=0 / bluray_compat=0 / constrained_intra=0 / fgo=0 / bframes=9 / b_pyramid=2 / b_adapt=2 / b_bias=0 / direct=1 / weightb=1 / open_gop=0 / weightp=2 / keyint=240 / keyint_min=24 / scenecut=40 / intra_refresh=0 / rc=crf / mbtree=0 / crf=18.5 / qcomp=0.72 / qpmin=0 / qpmax=69 / qpstep=4 / ip_ratio=1.40 / pb_ratio=1.30 / aq=1:0.85Language : JapaneseDefault : YesForced : NoColor range : LimitedColor primaries : BT.709Transfer characteristics : BT.709Matrix coefficients : BT.709

Audio #1ID : 2Format : AACFormat/Info : Advanced Audio CodecFormat profile : LCCodec ID : A_AACDuration : 24mn 14sBit rate : 192 KbpsChannel(s) : 2 channelsChannel positions : Front: L RSampling rate : 48.0 KHzFrame rate : 46.875 fps (1024 spf)Compression mode : LossyDelay relative to video : 9msStream size : 33.3 MiB (7%)Title : Sad_Kit, KingMaster & MilirinaLanguage : RussianDefault : YesForced : No

Audio #2ID : 3Format : AACFormat/Info : Advanced Audio CodecFormat profile : LCCodec ID : A_AACDuration : 24mn 14sBit rate : 192 KbpsChannel(s) : 2 channelsChannel positions : Front: L RSampling rate : 48.0 KHzFrame rate : 46.875 fps (1024 spf)Compression mode : LossyStream size : 33.2 MiB (7%)Title : OriginalLanguage : JapaneseDefault : NoForced : No

Text #1ID : 4Format : ASSCodec ID : S_TEXT/ASSCodec ID/Info : Advanced Sub Station AlphaDuration : 22mn 41sBit rate : 171 bpsCount of elements : 380Compression mode : LosslessStream size : 28.5 KiB (0%)Title : Sovet Romantica (Full)Language : RussianDefault : NoForced : No

Text #2ID : 5Format : ASSCodec ID : S_TEXT/ASSCodec ID/Info : Advanced Sub Station AlphaDuration : 22mn 11sBit rate : 9 bpsCount of elements : 15Compression mode : LosslessStream size : 1.58 KiB (0%)Title : Sovet RomanticaLanguage : RussianDefault : YesForced : No
</div>
</div>

Трекер:  [ 09-Июн-2017 02:01 ]

  

Скачать .torrent

Размер .torrent файла 16 KB


Размер: 2.99 GB
Хэш (hash) релиза: 1fa79fa18c3cab345700c053fd640bab884dc72b
Подписка на обновления:

Торренты, похожие на Не скрывая крик Fukumenkei Noise скачать торрент

Форум Название Автор Размер S L Добавлен
Аниме | Rips ·· Не скрывая крик / Fukumenkei Noise / Anonymous Noise [TV] [01-08 из 12] [Без хардсаба] [RUS(ext), JAP, SUB] [2017, Романтика, Музыка, Сёдзё, HDTVRip] [720p] Galfimbul 43040505084.01 GB 0 0 1496965138

02:38

9-Июн-17

Аниме | Rips ·· Не скрывая крик / Fukumenkei Noise / Anonymous Noise [TV] [01 из 12] [Без хардсаба] [RUS(ext), JAP, SUB] [2017, Романтика, Музыка, Сёдзё, HDTVRip] [720p] Galfimbul 469546516448 MB 0 0 1492108702

21:38

13-Апр-17

Аниме | HD Rips ·· Не скрывая крик / Fukumenkei Noise (Такахаси Хидэя) [TV] [8 из 12] [Без хардсаба] [JAP+SUB] [2017, музыка, романтика сёдзе, HDTVRip] [720p] Galfimbul 29357779792.73 GB 0 0 1496965261

02:41

9-Июн-17

Аниме | HD Rips ·· Не скрывая крик / Fukumenkei Noise (Хидэя Такахаси) [TV] [1 из 12] [Без хардсаба] [RUS(int), JAP, SUB] [2017, музыка, романтика, сёдзе HDTVRip] [720p] Galfimbul 466935164445 MB 0 0 1492155520

10:38

14-Апр-17

Аниме | HD Rips ·· Не скрывая крик / Fukumenkei Noise (Такахаси Хидэя) [TV] [1 из 12] [Без хардсаба] [JAP+SUB] [2017, музыка, романтика сёдзе, HDTVRip] [720p] Galfimbul 432137201412 MB 0 0 1492035831

01:23

13-Апр-17

Еще никто не оставлял запись к записи скачать торрент Не скрывая крик Fukumenkei Noise . Будь первым!

!Обратная связь