Скачать через торрент Берсерк бесплатно Аниме Все серии на русском torrent

Если у вас наблюдаются проблемы со скриншотами, переходом по ссылками, скачиванием торрентов - проблемы в блокировщике рекламы AdBlock. #хорошегоДня!


Статистика раздачи
Размер:  6.46 GB   |    Зарегистрирован:  3 месяца 14 дней   |    .torrent скачан:  22 раза   |   
Раздают:  1  
   
Загрузка...
 
Автор Сообщение

Galfimbul

avatar Galfimbul


Берсерк / BerserkTV-3
Страна: Япония
Год выпуска: 2017 г.
Тип: TV
Жанр: Приключения, фэнтези, экшен
Продолжительность: 12 эп. по 25 минРусские субтитры: Sovet Romantica
Перевод: ZoRg, Sempre_Libera
Редактура: Sempre_LiberaРусские субтитры: Pegasus sui vsem ken
Переводчик: Anku
Редактор/Оформление: mutagenb

Режиссер: Итагаки Син

Студия:

Описание: ТГатс, также известный как Черный Мечник, ищет убежища от демонических сил, преследующих его и его женщину, а также отмщения мужчине, заклеймившему его «нечистой жертвой». Поддерживаемый только своей титанической силой, умениями и мечом, Гатс идет наперекор своей мрачной судьбе, все время борясь с яростью, способной лишить его человечности.
«Берсерк» — это мрачная и тяжелая история жестоких битв на мечах и зловещей судьбы, выполненная в манере Шекспировского «Макбета»

Качество: HDTVRip | Равка: Leopard-Raws Формат: mp4 | Тип Видео: без хардсаба
Видео: х264, 8 bits, 1280x720, 4243 kbps, 23.976 fps, (16:9)
JP - AAC, 192 kbps, 48.0 KHz, 2 ch Язык Японский
01. The Rent World
02. Winter`s Journey
03. Banner of the Flying Sword
04. Forest of Demonic Beasts
05. Spirit Realm
06. Fight for Survival Against the Demonic Legion
07. The Arcana of Invocation
08. The Corruption of Qliphoth
09. The Berserker Armor
Общее
Полное имя : D:\[Leopard-Raws]\[Leopard-Raws] Berserk ТВ-3\[Leopard-Raws] Berserk 2017 - 01 RAW (WOWOW 1280x720 x264 AAC).mp4
Формат : MPEG-4
Профиль формата : Base Media
Идентификатор кодека : isom
Размер файла : 776 Мбайт
Продолжительность : 24 м.
Режим общего битрейта : Переменный
Общий поток : 4438 Кбит/сек
Дата кодирования : UTC 2017-04-08 04:02:40
Дата пометки : UTC 2017-04-08 04:02:40

Видео
Идентификатор : 1
Формат : AVC
Формат/Информация : Advanced Video Codec
Профиль формата : High@L4.1
Параметр CABAC формата : Да
Параметр ReFrames формата : 4 кадра
Идентификатор кодека : avc1
Идентификатор кодека/Информация : Advanced Video Coding
Продолжительность : 24 м.
Битрейт : 4243 Кбит/сек
Максимальный битрейт : 13,8 Мбит/сек
Ширина : 1280 пикселей
Высота : 720 пикселей
Соотношение сторон : 16:9
Режим частоты кадров : Постоянный
Частота кадров : 23,976 кадра/сек
Цветовое пространство : YUV
Субдискретизация насыщенности : 4:2:0
Битовая глубина : 8 бит
Тип развёртки : Прогрессивная
Бит/(Пиксели*Кадры) : 0.192
Размер потока : 742 Мбайт (96%)
Заголовок : 264:fps=23.976@GPAC0.5.2-DEV-rev376-g5eeb74d-master
Библиотека кодирования : x264 core 129 r2245+729M 1a52e03
Настройки программы : cabac=1 / ref=4 / deblock=1:1:-1 / analyse=0x3:0x113 / me=umh / subme=9 / psy=1 / fade_compensate=0.00 / psy_rd=1.00:0.00 / mixed_ref=1 / me_range=24 / chroma_me=1 / trellis=2 / 8x8dct=1 / cqm=0 / deadzone=21,11 / fast_pskip=1 / chroma_qp_offset=-2 / threads=8 / lookahead_threads=1 / sliced_threads=0 / nr=0 / decimate=1 / interlaced=0 / bluray_compat=0 / constrained_intra=0 / fgo=0 / bframes=9 / b_pyramid=2 / b_adapt=2 / b_bias=0 / direct=1 / weightb=1 / open_gop=0 / weightp=2 / keyint=240 / keyint_min=24 / scenecut=40 / intra_refresh=0 / rc=crf / mbtree=0 / crf=18.0 / qcomp=0.72 / qpmin=0 / qpmax=69 / qpstep=4 / ip_ratio=1.40 / pb_ratio=1.30 / aq=1:0.85
Дата кодирования : UTC 2017-04-08 04:02:40
Дата пометки : UTC 2017-04-08 04:02:45
Основные цвета : BT.709
Характеристики трансфера : BT.709
Коэффициенты матрицы : BT.709

Аудио
Идентификатор : 2
Формат : AAC
Формат/Информация : Advanced Audio Codec
Профиль формата : LC
Идентификатор кодека : 40
Продолжительность : 24 м.
Вид битрейта : Переменный
Битрейт : 192 Кбит/сек
Максимальный битрейт : 222 Кбит/сек
Каналы : 2 канала
Расположение каналов : Front: L R
Частота : 48,0 КГц
Метод сжатия : С потерями
Размер потока : 33,6 Мбайт (4%)
Язык : Japanese
Дата кодирования : UTC 2017-04-07 15:45:14
Дата пометки : UTC 2017-04-08 04:02:45


Обновите торент файл, добавлена 9.5я серия

Трекер:  [ 09-Июн-2017 02:01 ]

  

Скачать .torrent

Размер .torrent файла 19 KB


Размер: 6.46 GB
Хэш (hash) релиза: 8c6db55ec8556dd35bef9497644ad201f75118d6
Подписка на обновления:

Торренты, похожие на Берсерк скачать торрент

Форум Название Автор Размер S L Добавлен
Аниме | HD Rips ·· Берсерк (ТВ-2) / Berserk [TV] [12 из 12] [Без хардсаба] [RUS(int), JAP+SUB] [2016, приключения, фэнтези, BDRip] [1080p] Galfimbul 2428714356922.62 GB 0 0 1496795606

03:33

7-Июн-17

Аниме | HD Rips ·· Берсерк (ТВ-3) / Berserk (Итагаки Син) [TV] [Без хардсаба] [3 из 13] [JAP+SUB] & [RUS(ext)] [2 из 13] [2017, приключения, фэнтези, WEBRip] [1080p] Galfimbul 18647213991.74 GB 0 0 1492252130

13:28

15-Апр-17

Аниме | HD Rips ·· Берсерк (ТВ-3) / Berserk (Итагаки Син) [TV [2 из 13] [Без хардсаба] [JAP+SUB] [2017, приключения, фэнтези, экшен, HDTVRip] [720p] Galfimbul 15440719961.44 GB 0 0 1491816447

12:27

10-Апр-17

Аниме | HD Rips ·· Берсерк (ТВ-3) / Berserk [TV] [01-02 из 13] [Без хардсаба] [RUS(int), JAP+SUB] [2017, приключения, фэнтези, WEBRip] [720p] Galfimbul 769973679734 MB 0 0 1491656408

16:00

8-Апр-17

Аниме | HD Rips ·· Берсерк (ТВ-3) / Berserk (Итагаки Син) [TV] [2 из 13] [Без хардсаба] [JAP+SUB] [2017, приключения, фэнтези, WEBRip] [1080p] Galfimbul 11718854581.09 GB 0 0 1491642249

12:04

8-Апр-17

Аниме | HD Rips ·· Берсерк / Berserk (Итагаки Син) [TV [1 из 12] [Без хардсаба] [JAP+SUB] [2017, приключения, фэнтези, экшен, HDTVRip] [720p] Galfimbul 617562242589 MB 0 0 1491596995

23:29

7-Апр-17

Аниме | Rips ·· Берсерк: Золотой век / Berserk: Ougon Jidai Hen / Berserk: The Golden Age Arc [Movie] [3 из 3] [Без хардсаба] [RUS(int), JAP+SUB] [2012, приключения, фэнтези, драма, BDRip] [HWP] Galfimbul 35920117933.35 GB 0 0 1488980591

16:43

8-Мар-17

Аниме | Rips ·· Берсерк (ТВ-2) / Berserk [TV] [1-11 из 12] [Без хардсаба] [RUS(int)] [2016 г., сверхъестественное, ужасы, фэнтези, демоны, драма, экшен, HDTVRip] [720p] Galfimbul 89283246408.32 GB 0 0 1475081950

19:59

28-Сен-16

Аниме | HD Rips ·· Берсерк (ТВ-2) / Berserk [TV] [01-12 из 12] [Без хардсаба] [RUS(int), JAP+SUB] [2016 г., приключения, фэнтези, WEBRip] [720p] Galfimbul 45770357084.26 GB 0 0 1474293436

16:57

19-Сен-16

Аниме | Rips ·· Берсерк (ТВ-2) / Berserk [TV] [1-11 из 12] [Без хардсаба] [RUS(int)] [2016 г., сверхъестественное, ужасы, фэнтези, демоны, драма, экшен, HDTVRip] [720p] Galfimbul 82025651507.64 GB 0 0 1474208828

17:27

18-Сен-16

Аниме | HD Rips ·· Берсерк (ТВ-2) / Berserk [TV] [12 из 12] [Без хардсаба] [JAP, SUB] [2016 г., приключения, фэнтези, WEBRip] [1080p] Galfimbul 70273320716.54 GB 0 0 1474132407

20:13

17-Сен-16

Аниме | HD Rips ·· Берсерк / Berserk [TV] [1-11 из 12] [без хардсаба] [JAP+SUB] [2016 г., приключения, фэнтези, WebRip] [720p] Galfimbul 41927305623.9 GB 0 0 1474064117

01:15

17-Сен-16

Аниме | HD Rips ·· Берсерк (ТВ-2) / Berserk [TV] [1-11 из 12] [Без хардсаба] [JAP, SUB] [2016 г., приключения, фэнтези, WEBRip] [1080p] Galfimbul 64476584176 GB 0 0 1473524986

19:29

10-Сен-16

Аниме | HD Rips ·· Берсерк (ТВ-2) / Berserk [TV] [01-11 из 12] [Без хардсаба] [RUS(int), JAP+SUB] [2016 г., приключения, фэнтези, WEBRip] [720p] Galfimbul 41981724043.91 GB 0 0 1473524975

19:29

10-Сен-16

Аниме | HD Rips ·· Берсерк / Berserk [TV] [1-11 из 12] [без хардсаба] [JAP+SUB] [2016 г., приключения, фэнтези, WebRip] [720p] Galfimbul 38463053483.58 GB 0 0 1473455365

00:09

10-Сен-16

Аниме | Rips ·· Берсерк (ТВ-2) / Berserk [TV] [1-10 из 12] [Без хардсаба] [RUS(int)] [2016 г., сверхъестественное, ужасы, фэнтези, демоны, драма, экшен, HDTVRip] [720p] Galfimbul 74472017886.94 GB 0 0 1473287123

01:25

8-Сен-16

Аниме | HD Rips ·· Берсерк (ТВ-2) / Berserk [TV] [01-10 из 12] [Без хардсаба] [RUS(int), JAP+SUB] [2016 г., приключения, фэнтези, WEBRip] [720p] Galfimbul 38158200073.55 GB 0 0 1473007459

19:44

4-Сен-16

Аниме | Rips ·· Берсерк (ТВ-2) / Berserk [TV] [1-9 из 12] [Без хардсаба] [RUS(int)] [2016 г., сверхъестественное, ужасы, фэнтези, демоны, драма, экшен, HDTVRip] [720p] Galfimbul 66865470466.23 GB 0 0 1472932283

22:51

3-Сен-16

Аниме | HD Rips ·· Берсерк (ТВ-2) / Berserk [TV] [1-10 из XX] [Без хардсаба] [JAP, SUB] [2016 г., приключения, фэнтези, WEBRip] [1080p] Galfimbul 58602233875.46 GB 0 0 1472866352

04:32

3-Сен-16

Еще никто не оставлял запись к записи скачать торрент Берсерк . Будь первым!

!Обратная связь