Скачать через торрент Истории ран Kizumonogatari бесплатно Аниме Все серии на русском torrent

Если у вас наблюдаются проблемы со скриншотами, переходом по ссылками, скачиванием торрентов - проблемы в блокировщике рекламы AdBlock. #хорошегоДня!


Статистика раздачи
Размер:  7.61 GB   |    Зарегистрирован:  6 месяцев   |    .torrent скачан:  26 раз   |   
Раздают:  2  
   
Загрузка...
 
Автор Сообщение

Galfimbul

avatar Galfimbul


Год выпуска: 2016 | Страна: Япония
Жанр: приключения, мистика
Продолжительность: 3 фильма по 70 мин.Перевод: субтитры от YakuSub Studio
переводчики: Yukigawa, Sesha_Rim, редактор: Aero, oформление: Helge
Озвучка: двухголосая муж/жен от NIKITOS & Viki (SHIZA Project)
Режиссер: Симбо Акиюки

Студия:

AniDB World Art MALКачество: BDRip | Рип: Vladdrako [Beatrice-Raws]
Тип релиза: без хардсаба, без линковки
Формат видео: MKV
Видео: x264, Hi10P, 1920x816, 23.976fps, 5730 Kbps
Аудио JAP: FLAC, 48.0 kHz, 2.0 ch, 600 Kbps
Аудио RUS (ext): AAC, 48.0 kHz, 2.0 ch, 280 Kbps Описание: Я думаю, что самое время рассказать о Кисс-Шот-Ацерола-Орион-Харт-Андер-Блэйд. Я думаю, что должен сделать это. Я встретил ее на весенних каникулах по окончании второго года обучения. Эта встреча была подобна взрыву. Думал ли я, что серьезно влип? Конечно, ничего бы не произошло, если бы я не оказался там, или на моем месте был бы кто-то другой. На самом деле, я думаю, что свалить все на неудачу было бы чересчур безответственно, и, полагаю, должен признать - это была полностью моя ошибка. В конце концов, я верю, что мое существование породило дальнейшую цепь событий.
GeneralUnique ID : 248282923293059393506541857544250196571 (0xBAC98D39EB094093986C20FECE2E025B)Complete name : u:\anime\[Beatrice-Raws] Kizumonogatari [BDRip 1920x816 x264 FLAC]\[Beatrice-Raws] Kizumonogatari 1 [BDRip 1920x816 x264 FLAC].mkvFormat : MatroskaFormat version : Version 4 / Version 2File size : 2.81 GiBDuration : 1 h 3 minOverall bit rate mode : VariableOverall bit rate : 6 331 kb/sEncoded date : UTC 2017-04-24 21:25:21Writing application : mkvmerge v11.0.0 ('Alive') 64bitWriting library : libebml v1.3.4 + libmatroska v1.4.5

VideoID : 1Format : AVCFormat/Info : Advanced Video CodecFormat profile : High 10@L5Format settings, CABAC : YesFormat settings, ReFrames : 4 framesCodec ID : V_MPEG4/ISO/AVCDuration : 1 h 3 minBit rate : 5 730 kb/sWidth : 1 920 pixelsHeight : 816 pixelsDisplay aspect ratio : 2.35:1Frame rate mode : ConstantFrame rate : 23.976 (24000/1001) FPSColor space : YUVChroma subsampling : 4:2:0Bit depth : 10 bitsScan type : ProgressiveBits/(Pixel*Frame) : 0.153Stream size : 2.54 GiB (91%)Title : BDRip by VladdrakoWriting library : x264 core 148 r2597M e86f3a1 (DJATOM's build)Encoding settings : cabac=1 / ref=4 / deblock=1:1:-1 / analyse=0x3:0x113 / me=umh / subme=9 / psy=1 / fade_compensate=0.00 / psy_rd=1.00:0.00 / mixed_ref=1 / me_range=32 / chroma_me=1 / trellis=2 / 8x8dct=1 / cqm=0 / deadzone=21,11 / fast_pskip=1 / chroma_qp_offset=-2 / threads=25 / lookahead_threads=4 / sliced_threads=0 / nr=0 / decimate=1 / interlaced=0 / bluray_compat=0 / constrained_intra=0 / bframes=9 / b_pyramid=2 / b_adapt=2 / b_bias=0 / direct=1 / weightb=1 / open_gop=0 / weightp=2 / keyint=250 / keyint_min=23 / scenecut=40 / intra_refresh=0 / rc=crf / mbtree=0 / crf=14.8000 / qcomp=0.72 / qpmin=0 / qpmax=81 / qpstep=4 / ip_ratio=1.40 / pb_ratio=1.30 / aq=1:0.85Language : JapaneseDefault : YesForced : NoColor range : LimitedColor primaries : BT.709Transfer characteristics : BT.709Matrix coefficients : BT.709

AudioID : 2Format : FLACFormat/Info : Free Lossless Audio CodecCodec ID : A_FLACDuration : 1 h 3 minBit rate mode : VariableBit rate : 600 kb/sChannel(s) : 2 channelsChannel positions : Front: L RSampling rate : 48.0 kHzFrame rate : 11.719 FPS (4096 spf)Bit depth : 16 bitsStream size : 272 MiB (9%)Title : DTS-HD MA->FLAC 16/48Writing library : libFLAC 1.3.2 (UTC 2017-01-01)Language : JapaneseDefault : YesForced : No

Menu00:00:00.000 : :Avant00:05:55.271 : :OP00:06:50.326 : :Part A00:11:54.547 : :Part B00:18:08.879 : :Part C00:23:24.403 : :Part D00:32:30.198 : :Part E00:35:55.653 : :Part F00:42:56.490 : :Part G00:49:26.755 : :Part H00:53:16.234 : :Part I00:58:38.515 : :ED01:02:39.756 : :Part J
1. Iron-Blooded Arc
2. Hot-Blooded Arc
3. Cold-Blooded Arc
...5261104
BDRiphttp://rutracker.org/forum/viewtopic.php?t=5261125
...5261266
1080p


Трекер:  [ 09-Июн-2017 02:01 ]

  

Скачать .torrent

Размер .torrent файла 42 KB


Размер: 7.61 GB
Хэш (hash) релиза: a397675518246eb613206ac2690f29bc54229a71
Подписка на обновления:

Торренты, похожие на Истории ран Kizumonogatari скачать торрент

Форум Название Автор Размер S L Добавлен
Аниме | HD Rips ·· Истории ран / Kizumonogatari [Movie] [Без хардсаба] [1 из 3] [RUS(ext)] & [2 из 3] [JAP+SUB] [2016, приключения, мистика, BDRip] [720p] Galfimbul 36871023673.43 GB 0 0 1482595505

19:05

24-Дек-16

Аниме | HD Rips ·· Истории ран / Kizumonogatari [Movie] [1-2 из 3] [Без хардсаба] [JAP+SUB] [2016, приключения, мистика, BDRemux] [1080p] Galfimbul 4162960709938.77 GB 0 0 1482590431

17:40

24-Дек-16

Аниме | HD Rips ·· Истории ран / Kizumonogatari [Movie] [1-2 из 3] [Без хардсаба] [JAP+SUB] [2016, приключения, мистика, BDRip] [1080p] Galfimbul 79363392227.39 GB 0 0 1482578915

14:28

24-Дек-16

Аниме | HD Rips ·· Истории ран. Часть 1: Железная кровь / Kizumonogatari Part 1: Tekketsu-hen [Movie] [Без хардсаба] [RUS(ext), JAP+SUB] [2016, приключения, мистика, BDRip] [720p] Galfimbul 17554585091.63 GB 0 0 1477931686

19:34

31-Окт-16

Аниме | Rips ·· Истории ран. Часть 1: Железная кровь / Kizumonogatari Part 1: Tekketsu-hen [Movie] [Без хардсаба] [RUS(int), JAP+SUB] [2016 г., приключения, мистика, BDRip] [720p] Galfimbul 12358991331.15 GB 0 0 1472677996

00:13

1-Сен-16

Аниме | HD Rips ·· Истории ран. Часть 1: Железная кровь / Kizumonogatari Part 1: Tekketsu-hen [Movie] [Без хардсаба] [RUS(ext),JAP+SUB] [2016 г., приключения, мистика, BDRip] [720p] Galfimbul 14216286531.32 GB 0 0 1471042968

02:02

13-Авг-16

Аниме | HD Rips ·· Истории ран. Часть 1: Железная кровь / Kizumonogatari Part 1: Tekketsu-hen [Movie] [Без хардсаба] [RUS(ext), JAP+SUB] [2016 г., приключения, мистика, BDRip] [720p] Galfimbul 17552439981.63 GB 0 0 1471018404

19:13

12-Авг-16

Аниме | HD Rips ·· Истории ран. Часть 1: Железная кровь / Kizumonogatari Part 1: Tekketsu-hen [Movie] [Без хардсаба] [JAP+SUB] [2016 г., приключения, мистика, BDRemux] [1080p] Galfimbul 2028371027318.89 GB 0 0 1470410857

18:27

5-Авг-16

Аниме | HD Rips ·· Истории ран. Часть 1: Железная кровь / Kizumonogatari Part 1: Tekketsu-hen [Movie] [Без хардсаба] [JAP+SUB] [2016 г., приключения, мистика, BDRip] [1080p] Galfimbul 31972080952.98 GB 0 0 1470410849

18:27

5-Авг-16

Аниме | HD Rips ·· Истории ран. Часть 1: Железная кровь / Kizumonogatari Part 1: Tekketsu-hen [Movie] [Без хардсаба] [JAP+SUB] [2016 г., приключения, мистика, BDRip] [1080p] Galfimbul 31444884242.93 GB 0 0 1469876767

14:06

30-Июл-16

Аниме | HD Rips ·· Истории ран. Часть 1: Железная кровь / Kizumonogatari Part 1: Tekketsu-hen [Movie] [Без хардсаба] [JAP+SUB] [2016 г., приключения, мистика, BDRip] [544p] Galfimbul 14150953591.32 GB 0 0 1469826368

00:06

30-Июл-16

Аниме | HD Rips ·· Истории ран. Часть 1: Железная кровь / Kizumonogatari Part 1: Tekketsu-hen [Movie] [Без хардсаба] [JAP+SUB] [2016 г., приключения, мистика, BDRip] [720p] Galfimbul 12405347721.16 GB 0 0 1469806217

18:30

29-Июл-16

Аниме | HD Rips ·· Истории ран. Часть 1: Железная кровь / Kizumonogatari Part 1: Tekketsu-hen [Movie] [Без хардсаба] [JAP+SUB] [2016 г., приключения, мистика, BDRemux] [1080p] Galfimbul 1699018310015.82 GB 0 0 1469804350

17:59

29-Июл-16

Аниме | HD Rips ·· Истории ран. Часть 1: Железная кровь / Kizumonogatari Part 1: Tekketsu-hen [Movie] [Без хардсаба] [JAP+SUB] [2016 г., приключения, мистика, BDRip] [1080p] Galfimbul 11033352501.03 GB 0 0 1469681789

07:56

28-Июл-16

Еще никто не оставлял запись к записи скачать торрент Истории ран Kizumonogatari . Будь первым!

!Обратная связь