Скачать через торрент Не скрывая крик Fukumenkei Noise бесплатно Аниме Все серии на русском torrent

Если у вас наблюдаются проблемы со скриншотами, переходом по ссылками, скачиванием торрентов - проблемы в блокировщике рекламы AdBlock. #хорошегоДня!


Статистика раздачи
Размер:  2.73 GB   |    Зарегистрирован:  3 месяца 10 дней   |    .torrent скачан:  0 раз   |   
Раздают:  1  
   
Загрузка...
 
Автор Сообщение

Galfimbul

avatar Galfimbul


Не скрывая крик / Fukumenkei Noise
Страна: Япония
Год выпуска: 2017 г.
Тип: TV
Жанр: Музыка, романтика сёдзе
Продолжительность: 12 эп. по 25 минРежиссер: Такахаси Хидэя

Студия:

Описание: Девочка Нино и мальчик Момо с детства хорошие друзья и любят вместе петь. К несчастью, Момо вместе со своей семьей переезжает, и Нино полностью теряет контакт со своим другом. Позднее она встречает другого мальчика по имени Канадэ Юзуриха, юного композитора школьной группы, который постоянно занят написанием нот к своим песням. Он начинает подбадривать расстроенную Нино и позволяет петь ей свои песни. Очарованный ее пением, Канадэ влюбляется в Нино. Но через некоторое время неожиданно пропадает и Юзу.
Спустя несколько лет Нино поступает в старшую школу, и там на вступительной церемонии она встречает Момо и Юзу.

Качество: HDTVRip
Равка: Leopard-Raws
Формат: mp4
Тип Видео: без хардсаба
Видео: х264, 8 bits, 1280x720, 2181 kbps, 23.976 fps, (16:9)
JP - AAC, 192 kbps, 48.0 KHz, 2 ch Язык ЯпонскийРусские субтитры: sovetromantica
Перевод: KronosHunter
Редактура: Steamir, WolteR
01. We Hide Our True Heart
02. Please, God, Let Alice`s Love Be Forever Unrequited
03. No Matter What, Right Now
04. The Ones Who Hid Their True Hearts Joined Hands That Day
05. I Wouldn`t Have Had to See You Smile Like That
06. Today and Tomorrow, We`ll Walk
07. Our Lines of Sight Finally Overlapped
08. I Will Be Your Friend, I Swear I Will
Общее
Полное имя : D:\[Leopard-Raws]\[Leopard-Raws] Fukumenkei Noise\[Leopard-Raws] Fukumenkei Noise - 01 RAW (MX 1280x720 x264 AAC).mp4
Формат : MPEG-4
Профиль формата : Base Media
Идентификатор кодека : isom
Размер файла : 412 Мбайт
Продолжительность : 24 м.
Режим общего битрейта : Переменный
Общий поток : 2376 Кбит/сек
Дата кодирования : UTC 2017-04-12 04:18:28
Дата пометки : UTC 2017-04-12 04:18:28

Видео
Идентификатор : 1
Формат : AVC
Формат/Информация : Advanced Video Codec
Профиль формата : High@L4.1
Параметр CABAC формата : Да
Параметр ReFrames формата : 4 кадра
Идентификатор кодека : avc1
Идентификатор кодека/Информация : Advanced Video Coding
Продолжительность : 24 м.
Битрейт : 2181 Кбит/сек
Максимальный битрейт : 12,3 Мбит/сек
Ширина : 1280 пикселей
Высота : 720 пикселей
Соотношение сторон : 16:9
Режим частоты кадров : Постоянный
Частота кадров : 23,976 кадра/сек
Цветовое пространство : YUV
Субдискретизация насыщенности : 4:2:0
Битовая глубина : 8 бит
Тип развёртки : Прогрессивная
Бит/(Пиксели*Кадры) : 0.099
Размер потока : 378 Мбайт (92%)
Заголовок : 264:fps=23.976@GPAC0.5.2-DEV-rev376-g5eeb74d-master
Библиотека кодирования : x264 core 129 r2245+729M 1a52e03
Настройки программы : cabac=1 / ref=4 / deblock=1:1:-1 / analyse=0x3:0x113 / me=umh / subme=9 / psy=1 / fade_compensate=0.00 / psy_rd=1.00:0.00 / mixed_ref=1 / me_range=24 / chroma_me=1 / trellis=2 / 8x8dct=1 / cqm=0 / deadzone=21,11 / fast_pskip=1 / chroma_qp_offset=-2 / threads=8 / lookahead_threads=1 / sliced_threads=0 / nr=0 / decimate=1 / interlaced=0 / bluray_compat=0 / constrained_intra=0 / fgo=0 / bframes=9 / b_pyramid=2 / b_adapt=2 / b_bias=0 / direct=1 / weightb=1 / open_gop=0 / weightp=2 / keyint=240 / keyint_min=24 / scenecut=40 / intra_refresh=0 / rc=crf / mbtree=0 / crf=18.5 / qcomp=0.72 / qpmin=0 / qpmax=69 / qpstep=4 / ip_ratio=1.40 / pb_ratio=1.30 / aq=1:0.85
Дата кодирования : UTC 2017-04-12 04:18:28
Дата пометки : UTC 2017-04-12 04:18:31
Основные цвета : BT.709
Характеристики трансфера : BT.709
Коэффициенты матрицы : BT.709

Аудио
Идентификатор : 2
Формат : AAC
Формат/Информация : Advanced Audio Codec
Профиль формата : LC
Идентификатор кодека : 40
Продолжительность : 24 м.
Вид битрейта : Переменный
Битрейт : 192 Кбит/сек
Максимальный битрейт : 230 Кбит/сек
Каналы : 2 канала
Расположение каналов : Front: L R
Частота : 48,0 КГц
Метод сжатия : С потерями
Размер потока : 33,2 Мбайт (8%)
Язык : Japanese
Дата кодирования : UTC 2017-04-11 16:30:50
Дата пометки : UTC 2017-04-12 04:18:31


Обновите торент файл, добавлена 8я серия

Трекер:  [ 09-Июн-2017 02:01 ]

  

Скачать .torrent

Размер .torrent файла 16 KB


Размер: 2.73 GB
Хэш (hash) релиза: 610c9ac19ec3a361590802160d96e806928f5034
Подписка на обновления:

Торренты, похожие на Не скрывая крик Fukumenkei Noise скачать торрент

Форум Название Автор Размер S L Добавлен
Аниме | Rips ·· Не скрывая крик / Fukumenkei Noise / Anonymous Noise [TV] [01-08 из 12] [Без хардсаба] [RUS(ext), JAP, SUB] [2017, Романтика, Музыка, Сёдзё, HDTVRip] [720p] Galfimbul 43040505084.01 GB 0 0 1496965138

02:38

9-Июн-17

Аниме | Rips ·· Не скрывая крик / Fukumenkei Noise / Anonymous Noise [TV] [01 из 12] [Без хардсаба] [RUS(ext), JAP, SUB] [2017, Романтика, Музыка, Сёдзё, HDTVRip] [720p] Galfimbul 469546516448 MB 0 0 1492108702

21:38

13-Апр-17

Аниме | HD Rips ·· Не скрывая крик / Fukumenkei Noise (Хидэя Такахаси) [TV] [8 из 12] [Без хардсаба] [RUS(int), JAP, SUB] [2017, музыка, романтика, сёдзе HDTVRip] [720p] Galfimbul 32142429382.99 GB 0 0 1496965556

02:45

9-Июн-17

Аниме | HD Rips ·· Не скрывая крик / Fukumenkei Noise (Хидэя Такахаси) [TV] [1 из 12] [Без хардсаба] [RUS(int), JAP, SUB] [2017, музыка, романтика, сёдзе HDTVRip] [720p] Galfimbul 466935164445 MB 0 0 1492155520

10:38

14-Апр-17

Аниме | HD Rips ·· Не скрывая крик / Fukumenkei Noise (Такахаси Хидэя) [TV] [1 из 12] [Без хардсаба] [JAP+SUB] [2017, музыка, романтика сёдзе, HDTVRip] [720p] Galfimbul 432137201412 MB 0 0 1492035831

01:23

13-Апр-17

Еще никто не оставлял запись к записи скачать торрент Не скрывая крик Fukumenkei Noise . Будь первым!

!Обратная связь