Скачать через торрент Любовь от всех болезней Supercondriaque Фильм бесплатно в хорошем качестве torrent

Скачивайте на UnionPeer.org фильмы через торрент без регистрации. Новинки кино в хорошем качестве через торрент. На UnionPeer.org можно скачать через торрент фильмы 2014 и 2015 годов. Самые новые фильмы.

Скачать торрент Любовь от всех болезней Supercondriaque бесплатно через .torrent фильм мультфильм сериал

Если у вас наблюдаются проблемы со скриншотами, переходом по ссылками, скачиванием торрентов - проблемы в блокировщике рекламы AdBlock. #хорошегоДня!


Статистика раздачи
Размер:  593 MB   |    Зарегистрирован:  5 месяцев 11 дней   |    .torrent скачан:  22 раза   |   
Раздают:  1  
   
Загрузка...
 
Автор Сообщение

Galfimbul

avatar Galfimbul


Любовь от всех болезней- - - - - - - - - -
Оригинальное Название: Supercondriaque
Год Выпуска: 2014 г.
Cтрана: Франция
Жанр: комедия
Продолжительность: 01:47:29Перевод: Профессиональный (дублированный) [Лицензия]Режиссер: Дэни Бун

В ролях: Дани Бун, Кад Мерад, Алис Поль, Жан-Ив Бертело, Жюдит Эль Зейн, Марта Виллалонга, Валери Боннетон, Бруно Лоше, Жером Коммандёр, Джонатан КоэнОписание:
Роман Фобер — чудак и ипохондрик. Он никогда не был женат. Вся его жизнь сводится к тому, чтобы выискивать у себя симптомы страшных, на деле не существующих, болезней. Каждой находкой он стремится поделиться со своим единственным другом — доктором Димитрием Звенкой. Димитрий решает помочь Роману найти женщину и таким образом излечить его от постоянной ипохондрии, которая становится невыносимой.

Автор рипа: lokomotiv23Источник: BDRip 720p
Качество: HDRip
Формат: MP4
Видео кодек: H.264
Аудио кодек: AAC
Видео: MPEG-4 AVC Video (H.264) / 480x208 / 640 kbps / 23.976 fps / 40:17 / Main Profile 3.0
Аудио: AAC, 2 channels, 48 kHz, 128 kbps
General
Complete name                       : Любовь от всех болезней.2014.HDRip.mp4
Format                              : MPEG-4
Format profile                      : Base Media
Codec ID                            : isom
File size                           : 593 MiB
Duration                            : 1h 47mn
Overall bit rate mode               : Variable
Overall bit rate                    : 772 Kbps
Encoded date                        : UTC 2014-10-16 19:49:01
Tagged date                         : UTC 2014-10-16 19:49:01

Video
ID                                  : 1
Format                              : AVC
Format/Info                         : Advanced Video Codec
Format profile                      : Main@L3.0
Format settings, CABAC              : Yes
Format settings, ReFrames           : 3 frames
Codec ID                            : avc1
Codec ID/Info                       : Advanced Video Coding
Duration                            : 1h 47mn
Bit rate                            : 640 Kbps
Maximum bit rate                    : 4 247 Kbps
Width                               : 480 pixels
Height                              : 208 pixels
Display aspect ratio                : 2.35:1
Frame rate mode                     : Constant
Frame rate                          : 24.000 fps
Color space                         : YUV
Chroma subsampling                  : 4:2:0
Bit depth                           : 8 bits
Scan type                           : Progressive
Bits/(Pixel*Frame)                  : 0.267
Stream size                         : 492 MiB (83%)
Writing library                     : x264 core 130 r2273 b3065e6
Encoding settings                   : cabac=1 / ref=3 / deblock=1:-1:0 / analyse=0x1:0x131 / me=umh / subme=10 / psy=1 / psy_rd=1.00:0.20 / mixed_ref=1 / me_range=16 / chroma_me=1 / trellis=2 / 8x8dct=0 / cqm=0 / deadzone=21,11 / fast_pskip=0 / chroma_qp_offset=-3 / threads=6 / lookahead_threads=1 / sliced_threads=0 / nr=0 / decimate=0 / interlaced=0 / bluray_compat=0 / constrained_intra=0 / bframes=3 / b_pyramid=0 / b_adapt=2 / b_bias=0 / direct=3 / weightb=1 / open_gop=0 / weightp=2 / keyint=250 / keyint_min=23 / scenecut=40 / intra_refresh=0 / rc_lookahead=60 / rc=2pass / mbtree=1 / bitrate=640 / ratetol=1.0 / qcomp=0.60 / qpmin=0 / qpmax=69 / qpstep=4 / cplxblur=20.0 / qblur=0.5 / ip_ratio=1.40 / aq=1:1.00
Encoded date                        : UTC 2014-10-16 19:49:01
Tagged date                         : UTC 2014-10-16 19:52:17

Audio
ID                                  : 2
Format                              : AAC
Format/Info                         : Advanced Audio Codec
Format profile                      : LC
Codec ID                            : 40
Duration                            : 1h 47mn
Bit rate mode                       : Variable
Bit rate                            : 128 Kbps
Maximum bit rate                    : 173 Kbps
Channel(s)                          : 2 channels
Channel positions                   : Front: L R
Sampling rate                       : 48.0 KHz
Compression mode                    : Lossy
Delay relative to video             : 83ms
Stream size                         : 98.4 MiB (17%)
Encoded date                        : UTC 2014-10-16 19:52:13
Tagged date                         : UTC 2014-10-16 19:52:17


Трекер:  [ 09-Июн-2017 02:12 ]

  

Скачать .torrent

Размер .torrent файла 12 KB


Размер: 593 MB
Хэш (hash) релиза: 092d7f4e619f6fe4dfb4aa526186524ad8628363
Подписка на обновления:

Торренты, похожие на Любовь от всех болезней Supercondriaque скачать торрент

Форум Название Автор Размер S L Добавлен
Зарубежные фильмы до 2016 ·· Любовь от всех болезней / Supercondriaque (Дэни Бун / Dany Boon) [2014, Франция, комедия, DVD9 (Custom)] [16:9 PAL R2] Dub + Sub Fre Eng Rus + Original Fre Galfimbul 85354065927.95 GB 0 0 1449132747

11:52

3-Дек-15

Зарубежные фильмы до 2016 ·· Любовь от всех болезней / Supercondriaque (Дэни Бун / Dany Boon) [2014, Франция, комедия, HDRip] Dub Galfimbul 15565004801.45 GB 0 0 1420568505

21:21

6-Янв-15

Зарубежные фильмы до 2016 ·· Любовь от всех болезней / Supercondriaque (Дэни Бун / Dany Boon) [2014, Франция, комедия, BDRip 720p] Dub + Sub Rus, Eng + Original Fre Galfimbul 59608337125.55 GB 0 0 1413562113

19:08

17-Окт-14

Зарубежные фильмы до 2016 ·· Любовь от всех болезней / Supercondriaque (Дэни Бун) [2014, комедия, HDRip] Лицензия Galfimbul 22024192002.05 GB 0 0 1413457502

14:05

16-Окт-14

Зарубежные фильмы до 2016 ·· Любовь от всех болезней / Supercondriaque (Дэни Бун) [2014, комедия, HDRip] [Звук с TS] Galfimbul 14672629761.37 GB 0 0 1411324422

21:33

21-Сен-14

Зарубежные фильмы до 2016 ·· Любовь от всех болезней / Supercondriaque (Дэни Бун) [2014, комедия, HDRip] [Звук с TS] Galfimbul 22034104322.05 GB 0 0 1411324404

21:33

21-Сен-14

Зарубежные фильмы до 2016 ·· Любовь от всех болезней / Суперхондрик / Supercondriaque (2014) BDRip 1080p от NovaLan Galfimbul 95871497238.93 GB 0 0 1413470178

17:36

16-Окт-14

Зарубежные фильмы до 2016 ·· Любовь от всех болезней / Суперхондрик / Supercondriaque (Дэни Бун / Dany Boon) [2014, Франция, Комедия, приключения, драма, мелодрама, BDRip] Dub (Вольга) + Original Fre Galfimbul 22055608322.05 GB 0 0 1414849035

16:37

1-Ноя-14

Еще никто не оставлял запись к записи скачать торрент Любовь от всех болезней Supercondriaque . Будь первым!

!Обратная связь