Скачать через торрент Берсерк бесплатно Аниме Все серии на русском torrent

Если у вас наблюдаются проблемы со скриншотами, переходом по ссылками, скачиванием торрентов - проблемы в блокировщике рекламы AdBlock. #хорошегоДня!


Статистика раздачи
Размер:  22.62 GB   |    Зарегистрирован:  3 месяца 15 дней   |    .torrent скачан:  31 раз   |   
Раздают:  1  
   
Загрузка...
 
Автор Сообщение

Galfimbul

avatar Galfimbul


Страна: Япония
Год выпуска: 2016
Жанр: приключения, фэнтези
Продолжительность: 12 эп. по 25 мин.Режиссер: Итагаки Син
Студия: Liden FilmsСубтитры:

CafeSubs (Перевод: Anku | Редактура: mutagenb) [внешними файлами]

Озвучка:

AniDub (JAM, Trina_D) [в составе контейнера]

Описание:
Гатс, также известный как Чёрный Мечник, ищет убежища от демонических сил, преследующих его и его женщину, а также отмщения мужчине, заклеймившему его «нечистой жертвой». Поддерживаемый только своей титанической силой, умениями и мечом, Гатс вынужден бороться со своей мрачной судьбой, всё время сражаясь с яростью, способной лишить его человечности.Особенности Blu-ray версии:

без цензуры
больше 2D сцен с улучшенной прорисовкой

Качество: BDRip
Тип релиза: Без хардсаба
Формат видео: MKV
Наличие линковки: Нет
Видео: H.264, 8 bit, 1920x1080, ~9000 kbps, 23.976 fps
Аудио RUS: AC3, 192 kbps, 48 kHz, 2ch
Аудио JAP: AAC, ~480 kbps, 48 kHz, 2ch
ОбщееУникальный идентификатор : 235967992066010834832953400471302727697 (0xB185C83D30A6D116AA4DF256C8F06811)Полное имя : D:\Anime\Berserk TV-2 [1080p]\E01.mkvФормат : MatroskaВерсия формата : Version 4 / Version 2Размер файла : 1,70 ГбайтПродолжительность : 24 м. 29 с.Общий поток : 9916 Кбит/секДата кодирования : UTC 2017-06-05 18:25:02Программа кодирования : mkvmerge v10.0.0 ('To Drown In You') 64bitБиблиотека кодирования : libebml v1.3.4 + libmatroska v1.4.5

ВидеоИдентификатор : 1Формат : AVCФормат/Информация : Advanced Video CodecПрофиль формата : Main@L4Параметр CABAC формата : ДаПараметр ReFrames формата : 4 кадраИдентификатор кодека : V_MPEG4/ISO/AVCПродолжительность : 24 м. 29 с.Битрейт : 9240 Кбит/секШирина : 1920 пикселейВысота : 1080 пикселейСоотношение сторон : 16:9Режим частоты кадров : ПостоянныйЧастота кадров : 23,976 (24000/1001) кадра/секЦветовое пространство : YUVСубдискретизация насыщенности : 4:2:0Битовая глубина : 8 битТип развёртки : ПрогрессивнаяБит/(Пиксели*Кадры) : 0.186Размер потока : 1,58 Гбайт (93%)Библиотека кодирования : x264 core 148 r2708 86b7198Настройки программы : cabac=1 / ref=4 / deblock=1:0:0 / analyse=0x1:0x111 / me=umh / subme=8 / psy=1 / psy_rd=1.00:0.00 / mixed_ref=1 / me_range=16 / chroma_me=1 / trellis=1 / 8x8dct=0 / cqm=0 / deadzone=21,11 / fast_pskip=1 / chroma_qp_offset=-2 / threads=12 / lookahead_threads=2 / sliced_threads=0 / nr=0 / decimate=1 / interlaced=0 / bluray_compat=0 / constrained_intra=0 / bframes=3 / b_pyramid=2 / b_adapt=2 / b_bias=0 / direct=3 / weightb=1 / open_gop=0 / weightp=2 / keyint=240 / keyint_min=24 / scenecut=40 / intra_refresh=0 / rc_lookahead=50 / rc=crf / mbtree=1 / crf=18.0 / qcomp=0.60 / qpmin=0 / qpmax=69 / qpstep=4 / vbv_maxrate=20000 / vbv_bufsize=25000 / crf_max=0.0 / nal_hrd=none / filler=0 / ip_ratio=1.40 / aq=1:1.00Default : ДаForced : НетЦветовой диапазон : LimitedОсновные цвета : BT.709Характеристики трансфера : BT.709Коэффициенты матрицы : BT.709

Аудио #1Идентификатор : 2Формат : AC-3Формат/Информация : Audio Coding 3Параметр Endianness формата : BigИдентификатор кодека : A_AC3Продолжительность : 24 м. 29 с.Вид битрейта : ПостоянныйБитрейт : 192 Кбит/секКаналы : 2 каналаРасположение каналов : Front: L RЧастота : 48,0 КГцЧастота кадров : 31,250 кадров/сек (1536 spf)Битовая глубина : 16 битМетод сжатия : С потерямиЗадержка видео : -21 мс.Размер потока : 33,6 Мбайт (2%)Язык : RussianServiceKind/String : Complete MainDefault : ДаForced : Нет

Аудио #2Идентификатор : 3Формат : AACФормат/Информация : Advanced Audio CodecПрофиль формата : LCИдентификатор кодека : A_AACПродолжительность : 24 м. 29 с.Битрейт : 481 Кбит/секКаналы : 2 каналаРасположение каналов : Front: L RЧастота : 48,0 КГцЧастота кадров : 46,875 кадров/сек (1024 spf)Метод сжатия : С потерямиЗадержка видео : -21 мс.Размер потока : 84,3 Мбайт (5%)Язык : JapaneseDefault : НетForced : Нет

Меню00:00:00.000 : en:Chapter 100:01:22.291 : en:Opening00:02:52.214 : en:Chapter 200:14:23.071 : en:Chapter 300:22:03.948 : en:Ending00:23:33.871 : en:Chapter 400:23:58.145 : en:Preview
01. Меч, разящий драконов
02. Рыцари святой железной цепи
03. Ночь чудес
04. Откровение
05. Башня осуждения
06. Ночь празднования сожжения на костре
07. Чёрная Ведьма
08. Повторная встреча в притоне
09. Кровь мертвеца
10. Ангелы ада
11. Тень цели
12. Те, кто ждёт спасения, и те, кто борется
...5292833
...5251256
...5249928
- BDRip, 1080p
...5249969
- BDRip


Трекер:  [ 07-Июн-2017 03:30 ]

  

Скачать .torrent

Размер .torrent файла 114 KB


Размер: 22.62 GB
Хэш (hash) релиза: 92895c96eab1e6872666edc9b2415a3644e0b213
Подписка на обновления:

Торренты, похожие на Берсерк скачать торрент

Форум Название Автор Размер S L Добавлен
Аниме | HD Rips ·· Берсерк (ТВ-3) / Berserk (Итагаки Син) [TV] [9+1 из 13+1] [Без хардсаба] [JAP+SUB] [2017, приключения, фэнтези, экшен, HDTVRip] [720p] Galfimbul 69347378586.46 GB 0 0 1496965469

02:44

9-Июн-17

Аниме | HD Rips ·· Берсерк (ТВ-3) / Berserk (Итагаки Син) [TV] [Без хардсаба] [3 из 13] [JAP+SUB] & [RUS(ext)] [2 из 13] [2017, приключения, фэнтези, WEBRip] [1080p] Galfimbul 18647213991.74 GB 0 0 1492252130

13:28

15-Апр-17

Аниме | HD Rips ·· Берсерк (ТВ-3) / Berserk (Итагаки Син) [TV [2 из 13] [Без хардсаба] [JAP+SUB] [2017, приключения, фэнтези, экшен, HDTVRip] [720p] Galfimbul 15440719961.44 GB 0 0 1491816447

12:27

10-Апр-17

Аниме | HD Rips ·· Берсерк (ТВ-3) / Berserk [TV] [01-02 из 13] [Без хардсаба] [RUS(int), JAP+SUB] [2017, приключения, фэнтези, WEBRip] [720p] Galfimbul 769973679734 MB 0 0 1491656408

16:00

8-Апр-17

Аниме | HD Rips ·· Берсерк (ТВ-3) / Berserk (Итагаки Син) [TV] [2 из 13] [Без хардсаба] [JAP+SUB] [2017, приключения, фэнтези, WEBRip] [1080p] Galfimbul 11718854581.09 GB 0 0 1491642249

12:04

8-Апр-17

Аниме | HD Rips ·· Берсерк / Berserk (Итагаки Син) [TV [1 из 12] [Без хардсаба] [JAP+SUB] [2017, приключения, фэнтези, экшен, HDTVRip] [720p] Galfimbul 617562242589 MB 0 0 1491596995

23:29

7-Апр-17

Аниме | Rips ·· Берсерк: Золотой век / Berserk: Ougon Jidai Hen / Berserk: The Golden Age Arc [Movie] [3 из 3] [Без хардсаба] [RUS(int), JAP+SUB] [2012, приключения, фэнтези, драма, BDRip] [HWP] Galfimbul 35920117933.35 GB 0 0 1488980591

16:43

8-Мар-17

Аниме | Rips ·· Берсерк (ТВ-2) / Berserk [TV] [1-11 из 12] [Без хардсаба] [RUS(int)] [2016 г., сверхъестественное, ужасы, фэнтези, демоны, драма, экшен, HDTVRip] [720p] Galfimbul 89283246408.32 GB 0 0 1475081950

19:59

28-Сен-16

Аниме | HD Rips ·· Берсерк (ТВ-2) / Berserk [TV] [01-12 из 12] [Без хардсаба] [RUS(int), JAP+SUB] [2016 г., приключения, фэнтези, WEBRip] [720p] Galfimbul 45770357084.26 GB 0 0 1474293436

16:57

19-Сен-16

Аниме | Rips ·· Берсерк (ТВ-2) / Berserk [TV] [1-11 из 12] [Без хардсаба] [RUS(int)] [2016 г., сверхъестественное, ужасы, фэнтези, демоны, драма, экшен, HDTVRip] [720p] Galfimbul 82025651507.64 GB 0 0 1474208828

17:27

18-Сен-16

Аниме | HD Rips ·· Берсерк (ТВ-2) / Berserk [TV] [12 из 12] [Без хардсаба] [JAP, SUB] [2016 г., приключения, фэнтези, WEBRip] [1080p] Galfimbul 70273320716.54 GB 0 0 1474132407

20:13

17-Сен-16

Аниме | HD Rips ·· Берсерк / Berserk [TV] [1-11 из 12] [без хардсаба] [JAP+SUB] [2016 г., приключения, фэнтези, WebRip] [720p] Galfimbul 41927305623.9 GB 0 0 1474064117

01:15

17-Сен-16

Аниме | HD Rips ·· Берсерк (ТВ-2) / Berserk [TV] [1-11 из 12] [Без хардсаба] [JAP, SUB] [2016 г., приключения, фэнтези, WEBRip] [1080p] Galfimbul 64476584176 GB 0 0 1473524986

19:29

10-Сен-16

Аниме | HD Rips ·· Берсерк (ТВ-2) / Berserk [TV] [01-11 из 12] [Без хардсаба] [RUS(int), JAP+SUB] [2016 г., приключения, фэнтези, WEBRip] [720p] Galfimbul 41981724043.91 GB 0 0 1473524975

19:29

10-Сен-16

Аниме | HD Rips ·· Берсерк / Berserk [TV] [1-11 из 12] [без хардсаба] [JAP+SUB] [2016 г., приключения, фэнтези, WebRip] [720p] Galfimbul 38463053483.58 GB 0 0 1473455365

00:09

10-Сен-16

Аниме | Rips ·· Берсерк (ТВ-2) / Berserk [TV] [1-10 из 12] [Без хардсаба] [RUS(int)] [2016 г., сверхъестественное, ужасы, фэнтези, демоны, драма, экшен, HDTVRip] [720p] Galfimbul 74472017886.94 GB 0 0 1473287123

01:25

8-Сен-16

Аниме | HD Rips ·· Берсерк (ТВ-2) / Berserk [TV] [01-10 из 12] [Без хардсаба] [RUS(int), JAP+SUB] [2016 г., приключения, фэнтези, WEBRip] [720p] Galfimbul 38158200073.55 GB 0 0 1473007459

19:44

4-Сен-16

Аниме | Rips ·· Берсерк (ТВ-2) / Berserk [TV] [1-9 из 12] [Без хардсаба] [RUS(int)] [2016 г., сверхъестественное, ужасы, фэнтези, демоны, драма, экшен, HDTVRip] [720p] Galfimbul 66865470466.23 GB 0 0 1472932283

22:51

3-Сен-16

Аниме | HD Rips ·· Берсерк (ТВ-2) / Berserk [TV] [1-10 из XX] [Без хардсаба] [JAP, SUB] [2016 г., приключения, фэнтези, WEBRip] [1080p] Galfimbul 58602233875.46 GB 0 0 1472866352

04:32

3-Сен-16

Еще никто не оставлял запись к записи скачать торрент Берсерк . Будь первым!

!Обратная связь