Скачать порно через торрент [corbinfisher.com] Bi Fraternity Teasing 2 Би братство дразнится 2 UnionPeer.org бесплатно онлайн HD качество

Скачать новое порно 2015, 2014 новинки через торрент UnionPeer.org

Порно торрент бесплатно ЮнионПир.орг

Если у вас наблюдаются проблемы со скриншотами, переходом по ссылками, скачиванием торрентов - проблемы в блокировщике рекламы AdBlock. #хорошегоДня!


Статистика раздачи
Размер:  1024 MB   |    Зарегистрирован:  2 месяца 15 дней   |    .torrent скачан:  207 раз   |   
Раздают:  1   Качают:  1  
   
Загрузка...
 
Автор Сообщение

Galfimbul

avatar Galfimbul


[corbinfisher.com] Bi Fraternity Teasing 2 / Би братство дразнится 2

Год производства: 2015 г.
Страна: USA
Жанр: gay, bareback, anal, oral, cum swallowing
Продолжительность: 01:25:00

Режиссер: Corbin Fisher
Студия: Corbin Fisher

В ролях: Connor, Trey, Travis, Dawson, Austin, Connor, and Brody

Описание: Парни занимаются разными ласками и не защищенным сексом в присутствии девушки.

Доп. информация: https://straight.theater.aebn.net/dispatcher/movieDetail?genreId=101&theaterId=13992&movieId=188732&locale=en

Качество видео: DVDRip
Формат видео: MP4
Видео: XVID, 720х400, 29.97 fps, ~1500 kb/s
Аудио: mp3, 160 kb/s
General
Complete name : Bi Fraternity Teasing 2.mp4
Format : MPEG-4
Format profile : Base Media
Codec ID : isom (isom/iso2/avc1/mp41)
File size : 1 023 MiB
Duration : 1 h 24 min
Overall bit rate : 1 683 kb/s
Encoded date : UTC 2017-06-03 09:38:09
Tagged date : UTC 2017-06-03 09:38:09
Writing application : Lavf56.36.100

Video
ID : 2
Format : AVC
Format/Info : Advanced Video Codec
Format profile : Main@L3
Format settings, CABAC : Yes
Format settings, ReFrames : 3 frames
Codec ID : avc1
Codec ID/Info : Advanced Video Coding
Duration : 1 h 24 min
Bit rate : 1 517 kb/s
Width : 720 pixels
Height : 400 pixels
Display aspect ratio : 16:9
Frame rate mode : Constant
Frame rate : 29.970 (30000/1001) FPS
Color space : YUV
Chroma subsampling : 4:2:0
Bit depth : 8 bits
Scan type : Progressive
Bits/(Pixel*Frame) : 0.176
Stream size : 922 MiB (90%)
Encoded date : UTC 2017-06-03 09:38:09
Tagged date : UTC 2017-06-03 09:38:09

Audio
ID : 1
Format : MPEG Audio
Format version : Version 1
Format profile : Layer 3
Mode : Joint stereo
Mode extension : MS Stereo
Codec ID : 6B
Duration : 1 h 24 min
Duration_LastFrame : -1 ms
Bit rate mode : Constant
Bit rate : 160 kb/s
Channel(s) : 2 channels
Sampling rate : 44.1 kHz
Compression mode : Lossy
Stream size : 97.2 MiB (10%)
Writing library : LAME3.99.5
Language : English
Default : Yes
Alternate group : 1
Encoded date : UTC 2017-06-03 09:38:09
Tagged date : UTC 2017-06-03 09:38:09

Раздача будет осуществляться преимущественно вечером или ночью.Не забываем говорить "Спасибо".

Трекер:  [ 05-Июн-2017 22:30 ]

  

Скачать .torrent

Размер .torrent файла 20 KB


Размер: 1024 MB
Хэш (hash) релиза: ef825e2d8e6c607a94dba4125a60d200a1ae436e

Еще никто не оставлял запись к записи скачать торрент [corbinfisher.com] Bi Fraternity Teasing 2 Би братство дразнится 2 . Будь первым!

!Обратная связь