Скачать через торрент музыку Сфера The Circle бесплатно без регистрации torrent

Если у вас наблюдаются проблемы со скриншотами, переходом по ссылками, скачиванием торрентов - проблемы в блокировщике рекламы AdBlock. #хорошегоДня!


Статистика раздачи
Размер:  202 MB   |    Зарегистрирован:  3 месяца 21 день   |    .torrent скачан:  26 раз   |   
Раздают:  1  
   
Загрузка...
 
Автор Сообщение

Galfimbul

avatar Galfimbul


Сфера / The Circle

Название альбома: The Circle
Жанр: Score
Композитор: Danny Elfman
Год выпуска диска: 2017
Год выпуска фильма: 2017
Производитель диска: EU
Издатель (лейбл): Sony Classical
Номер по каталогу: 88985443732
Аудиокодек: FLAC
Тип рипа: tracks+.cue
Битрейт аудио: lossless
Продолжительность: 00:41:02
Источник: Спасибо, Filex
Наличие сканов в содержимом раздачи: да (только обложки)
01. Into A Circle
02. Wonderland
03. Happy Little Robots
04. Inner Sanctum
05. Lonely Kayak
06. Aftermath
07. Upgrade
08. Panic Text
09. Conspiracy
10. Chasing Amy
11. Fog Attack
12. Stolen Kayak
13. Finding Mercer
14. Toilet Talk
15. Intake
16. Ascension
17. Mae Takes Over
18. Simple Gifts (By Jónsi)

Bonus Track
19. More Happy Little Robots
20. Return To Wonderland
21. Happy Love Theme
Exact Audio Copy V1.3 from 2. September 2016

EAC extraction logfile from 3. June 2017, 11:17

Danny Elfman / The Circle

Used drive : PLEXTOR CD-R PX-230A Adapter: 1 ID: 0

Read mode : SecureUtilize accurate stream : YesDefeat audio cache : YesMake use of C2 pointers : No

Read offset correction : 738Overread into Lead-In and Lead-Out : NoFill up missing offset samples with silence : YesDelete leading and trailing silent blocks : NoNull samples used in CRC calculations : YesUsed interface : Native Win32 interface for Win NT & 2000Gap handling : Appended to previous track

Used output format : User Defined EncoderSelected bitrate : 1024 kBit/sQuality : HighAdd ID3 tag : NoCommand line compressor : C:\Program Files\Exact Audio Copy\Flac\flac.exeAdditional command line options : -6 -V -T "ARTIST=%artist%" -T "TITLE=%title%" -T "ALBUM=%albumtitle%" -T "DATE=%year%" -T "TRACKNUMBER=%tracknr%" -T "GENRE=%genre%" -T "COMMENT=%comment%" -T "ALBUMARTIST=%albuminterpret%" -T "COMPOSER=%composer%" -T "DISCNUMBER=%cdnumber%" -T "TOTALDISCS=%totalcds%" -T "TOTALTRACKS=%numtracks%" %source% -o %dest%

TOC of the extracted CD

Track | Start | Length | Start sector | End sector --------------------------------------------------------- 1 | 0:00.00 | 0:59.74 | 0 | 4498 2 | 0:59.74 | 2:01.47 | 4499 | 13620 3 | 3:01.46 | 1:33.71 | 13621 | 20666 4 | 4:35.42 | 1:26.62 | 20667 | 27178 5 | 6:02.29 | 0:57.07 | 27179 | 31460 6 | 6:59.36 | 2:51.40 | 31461 | 44325 7 | 9:51.01 | 0:45.34 | 44326 | 47734 8 | 10:36.35 | 2:05.58 | 47735 | 57167 9 | 12:42.18 | 1:18.15 | 57168 | 63032 10 | 14:00.33 | 0:45.42 | 63033 | 66449 11 | 14:46.00 | 1:36.65 | 66450 | 73714 12 | 16:22.65 | 2:52.20 | 73715 | 86634 13 | 19:15.10 | 3:02.69 | 86635 | 100353 14 | 22:18.04 | 1:15.54 | 100354 | 106032 15 | 23:33.58 | 2:06.04 | 106033 | 115486 16 | 25:39.62 | 1:03.27 | 115487 | 120238 17 | 26:43.14 | 4:27.53 | 120239 | 140316 18 | 31:10.67 | 4:44.28 | 140317 | 161644 19 | 35:55.20 | 2:19.02 | 161645 | 172071 20 | 38:14.22 | 1:34.65 | 172072 | 179186 21 | 39:49.12 | 1:11.59 | 179187 | 184570

Track 1

Filename C:\Ripped by Filex\01 - Into a Circle.wav

Pre-gap length 0:00:02.00

Peak level 94.4 % Extraction speed 3.6 X Track quality 100.0 % Test CRC B803D21D Copy CRC B803D21D Track not present in AccurateRip database Copy OK

Track 2

Filename C:\Ripped by Filex\02 - Wonderland.wav

Peak level 94.4 % Extraction speed 4.7 X Track quality 100.0 % Test CRC D2274160 Copy CRC D2274160 Track not present in AccurateRip database Copy OK

Track 3

Filename C:\Ripped by Filex\03 - Happy Little Robots.wav

Peak level 94.2 % Extraction speed 3.8 X Track quality 99.8 % Test CRC 34C93C41 Copy CRC 34C93C41 Track not present in AccurateRip database Copy OK

Track 4

Filename C:\Ripped by Filex\04 - Inner Sanctum.wav

Peak level 89.5 % Extraction speed 4.7 X Track quality 100.0 % Test CRC 5DD7B669 Copy CRC 5DD7B669 Track not present in AccurateRip database Copy OK

Track 5

Filename C:\Ripped by Filex\05 - Lonely Kayak.wav

Peak level 94.4 % Extraction speed 3.4 X Track quality 99.8 % Test CRC B2A14138 Copy CRC B2A14138 Track not present in AccurateRip database Copy OK

Track 6

Filename C:\Ripped by Filex\06 - Aftermath.wav

Peak level 94.4 % Extraction speed 5.7 X Track quality 100.0 % Test CRC 85527F94 Copy CRC 85527F94 Track not present in AccurateRip database Copy OK

Track 7

Filename C:\Ripped by Filex\07 - Upgrade.wav

Peak level 94.5 % Extraction speed 3.1 X Track quality 99.7 % Test CRC 6B3FC8B5 Copy CRC 6B3FC8B5 Track not present in AccurateRip database Copy OK

Track 8

Filename C:\Ripped by Filex\08 - Panic Text.wav

Peak level 94.4 % Extraction speed 5.7 X Track quality 100.0 % Test CRC 4D54F398 Copy CRC 4D54F398 Track not present in AccurateRip database Copy OK

Track 9

Filename C:\Ripped by Filex\09 - Conspiracy.wav

Peak level 94.4 % Extraction speed 5.4 X Track quality 100.0 % Test CRC FB3803E4 Copy CRC FB3803E4 Track not present in AccurateRip database Copy OK

Track 10

Filename C:\Ripped by Filex\10 - Chasing Amy.wav

Peak level 94.4 % Extraction speed 4.9 X Track quality 100.0 % Test CRC DFDBB5EA Copy CRC DFDBB5EA Track not present in AccurateRip database Copy OK

Track 11

Filename C:\Ripped by Filex\11 - Fog Attack.wav

Peak level 94.4 % Extraction speed 6.0 X Track quality 100.0 % Test CRC 8490D81B Copy CRC 8490D81B Track not present in AccurateRip database Copy OK

Track 12

Filename C:\Ripped by Filex\12 - Stolen Kayak.wav

Peak level 94.4 % Extraction speed 6.5 X Track quality 100.0 % Test CRC 40B7620E Copy CRC 40B7620E Track not present in AccurateRip database Copy OK

Track 13

Filename C:\Ripped by Filex\13 - Finding Mercer.wav

Peak level 94.4 % Extraction speed 6.0 X Track quality 99.9 % Test CRC CC4325F6 Copy CRC CC4325F6 Track not present in AccurateRip database Copy OK

Track 14

Filename C:\Ripped by Filex\14 - Toilet Talk.wav

Peak level 94.4 % Extraction speed 6.0 X Track quality 100.0 % Test CRC CEAA91CF Copy CRC CEAA91CF Track not present in AccurateRip database Copy OK

Track 15

Filename C:\Ripped by Filex\15 - Intake.wav

Peak level 94.4 % Extraction speed 6.6 X Track quality 100.0 % Test CRC E3CFBBC0 Copy CRC E3CFBBC0 Track not present in AccurateRip database Copy OK

Track 16

Filename C:\Ripped by Filex\16 - Ascension.wav

Peak level 94.3 % Extraction speed 5.7 X Track quality 100.0 % Test CRC CEDD44D3 Copy CRC CEDD44D3 Track not present in AccurateRip database Copy OK

Track 17

Filename C:\Ripped by Filex\17 - Mae Takes Over.wav

Peak level 94.4 % Extraction speed 7.4 X Track quality 100.0 % Test CRC 0037F835 Copy CRC 0037F835 Track not present in AccurateRip database Copy OK

Track 18

Filename C:\Ripped by Filex\18 - Simple Gifts - Performed by Jónsi.wav

Pre-gap length 0:00:03.00

Peak level 89.6 % Extraction speed 7.7 X Track quality 100.0 % Test CRC 41621E27 Copy CRC 41621E27 Track not present in AccurateRip database Copy OK

Track 19

Filename C:\Ripped by Filex\19 - More Happy Little Robots (Bonus Track).wav

Pre-gap length 0:00:03.01

Peak level 94.4 % Extraction speed 7.0 X Track quality 100.0 % Test CRC DDB0A7CC Copy CRC DDB0A7CC Track not present in AccurateRip database Copy OK

Track 20

Filename C:\Ripped by Filex\20 - Return to Wonderland (Bonus Track).wav

Peak level 94.4 % Extraction speed 7.0 X Track quality 100.0 % Test CRC 4DAAD5B0 Copy CRC 4DAAD5B0 Track not present in AccurateRip database Copy OK

Track 21

Filename C:\Ripped by Filex\21 - Happy Love Theme (Bonus Track).wav

Peak level 97.1 % Extraction speed 6.5 X Track quality 100.0 % Test CRC D2DA3CDB Copy CRC D2DA3CDB Track not present in AccurateRip database Copy OK

None of the tracks are present in the AccurateRip database

No errors occurred

End of status report

---- CUETools DB Plugin V2.1.6

[CTDB TOCID: tqQNziZV9OUMSNpld0Oki39RcZg-] disk not present in databaseSubmit result: tqQNziZV9OUMSNpld0Oki39RcZg- has been uploaded

==== Log checksum C9A94B2B832CC128C05A4283C599468A59407322499BE09BB19E0C6510F178A2 ====
REM GENRE SoundtrackREM DATE 2017REM DISCID 23099C15REM COMMENT "ExactAudioCopy v1.3"PERFORMER "Danny Elfman"TITLE "The Circle"REM COMPOSER "Danny Elfman"FILE "01 - Into a Circle.wav" WAVE TRACK 01 AUDIO TITLE "Into a Circle" PERFORMER "Danny Elfman" REM COMPOSER "Danny Elfman" INDEX 01 00:00:00FILE "02 - Wonderland.wav" WAVE TRACK 02 AUDIO TITLE "Wonderland" PERFORMER "Danny Elfman" REM COMPOSER "Danny Elfman" INDEX 01 00:00:00FILE "03 - Happy Little Robots.wav" WAVE TRACK 03 AUDIO TITLE "Happy Little Robots" PERFORMER "Danny Elfman" REM COMPOSER "Danny Elfman" INDEX 01 00:00:00FILE "04 - Inner Sanctum.wav" WAVE TRACK 04 AUDIO TITLE "Inner Sanctum" PERFORMER "Danny Elfman" REM COMPOSER "Danny Elfman" INDEX 01 00:00:00FILE "05 - Lonely Kayak.wav" WAVE TRACK 05 AUDIO TITLE "Lonely Kayak" PERFORMER "Danny Elfman" REM COMPOSER "Danny Elfman" INDEX 01 00:00:00FILE "06 - Aftermath.wav" WAVE TRACK 06 AUDIO TITLE "Aftermath" PERFORMER "Danny Elfman" REM COMPOSER "Danny Elfman" INDEX 01 00:00:00FILE "07 - Upgrade.wav" WAVE TRACK 07 AUDIO TITLE "Upgrade" PERFORMER "Danny Elfman" REM COMPOSER "Danny Elfman" INDEX 01 00:00:00FILE "08 - Panic Text.wav" WAVE TRACK 08 AUDIO TITLE "Panic Text" PERFORMER "Danny Elfman" REM COMPOSER "Danny Elfman" INDEX 01 00:00:00FILE "09 - Conspiracy.wav" WAVE TRACK 09 AUDIO TITLE "Conspiracy" PERFORMER "Danny Elfman" REM COMPOSER "Danny Elfman" INDEX 01 00:00:00FILE "10 - Chasing Amy.wav" WAVE TRACK 10 AUDIO TITLE "Chasing Amy" PERFORMER "Danny Elfman" REM COMPOSER "Danny Elfman" INDEX 01 00:00:00FILE "11 - Fog Attack.wav" WAVE TRACK 11 AUDIO TITLE "Fog Attack" PERFORMER "Danny Elfman" REM COMPOSER "Danny Elfman" INDEX 01 00:00:00FILE "12 - Stolen Kayak.wav" WAVE TRACK 12 AUDIO TITLE "Stolen Kayak" PERFORMER "Danny Elfman" REM COMPOSER "Danny Elfman" INDEX 01 00:00:00FILE "13 - Finding Mercer.wav" WAVE TRACK 13 AUDIO TITLE "Finding Mercer" PERFORMER "Danny Elfman" REM COMPOSER "Danny Elfman" INDEX 01 00:00:00FILE "14 - Toilet Talk.wav" WAVE TRACK 14 AUDIO TITLE "Toilet Talk" PERFORMER "Danny Elfman" REM COMPOSER "Danny Elfman" INDEX 01 00:00:00FILE "15 - Intake.wav" WAVE TRACK 15 AUDIO TITLE "Intake" PERFORMER "Danny Elfman" REM COMPOSER "Danny Elfman" INDEX 01 00:00:00FILE "16 - Ascension.wav" WAVE TRACK 16 AUDIO TITLE "Ascension" PERFORMER "Danny Elfman" REM COMPOSER "Danny Elfman" INDEX 01 00:00:00FILE "17 - Mae Takes Over.wav" WAVE TRACK 17 AUDIO TITLE "Mae Takes Over" PERFORMER "Danny Elfman" REM COMPOSER "Danny Elfman" INDEX 01 00:00:00 TRACK 18 AUDIO TITLE "Simple Gifts" PERFORMER "Jуnsi" REM COMPOSER "" INDEX 00 04:24:53FILE "18 - Simple Gifts.wav" WAVE INDEX 01 00:00:00 TRACK 19 AUDIO TITLE "More Happy Little Robots (Bonus Track)" PERFORMER "Danny Elfman" REM COMPOSER "Danny Elfman" INDEX 00 04:41:27FILE "19 - More Happy Little Robots (Bonus Track).wav" WAVE INDEX 01 00:00:00FILE "20 - Return to Wonderland (Bonus Track).wav" WAVE TRACK 20 AUDIO TITLE "Return to Wonderland (Bonus Track)" PERFORMER "Danny Elfman" REM COMPOSER "Danny Elfman" INDEX 01 00:00:00FILE "21 - Happy Love Theme (Bonus Track).wav" WAVE TRACK 21 AUDIO TITLE "Happy Love Theme (Bonus Track)" PERFORMER "Danny Elfman" REM COMPOSER "Danny Elfman" INDEX 01 00:00:00
RG Soundtracks

Трекер:  [ 03-Июн-2017 12:30 ]

  

Скачать .torrent

Размер .torrent файла 17 KB


Размер: 202 MB
Хэш (hash) релиза: 86492c2988f316d22581ebda0751ba4a69a7671d

Торренты, похожие на Сфера The Circle скачать торрент

Форум Название Автор Размер S L Добавлен
Саундтреки к фильмам и мультфильмам (mp3) ·· (Score) Сфера / The Circle (Danny Elfman) - 2017, MP3, 320 kbps Galfimbul 9924439695 MB 0 0 1493332941

01:42

28-Апр-17

Еще никто не оставлял запись к записи скачать торрент Сфера The Circle . Будь первым!

!Обратная связь