Скачать порно через торрент Shoot Выстрел UnionPeer.org бесплатно онлайн HD качество

Скачать новое порно 2015, 2014 новинки через торрент UnionPeer.org

Порно торрент бесплатно ЮнионПир.орг

Если у вас наблюдаются проблемы со скриншотами, переходом по ссылками, скачиванием торрентов - проблемы в блокировщике рекламы AdBlock. #хорошегоДня!


Статистика раздачи
Размер:  1.03 GB   |    Зарегистрирован:  4 месяца 16 дней   |    .torrent скачан:  41 раз   |   
Раздают:  1  
   
Загрузка...
 
Автор Сообщение

Galfimbul

avatar Galfimbul



Shoot
Выстрел

Год производства:
1991 г.
Страна:
US
Жанр:
Muscles, Jocks, Anal, Safe Sex
Продолжительность:
01:10:07
Студия:
Jocks Video
Режиссер:
Bruce Cam
В ролях:
Chris Robbin, Cliff Parker, Cougar Cash, Hank Conrad, Kip Harting, Neil Erickson, Rob Cryston, Steven Gibson
Описание:
Sexy, horse-hung men in wild man-to-man action! Starring Kip Harting, Rob Cryston, and big blond Steve Gibson.
Качество видео:
VHSRip
Формат видео:
WMV
Видео:
VC-1, 720x480, 29.970 fps, 2 000 kb/s
Аудио:
WMA, 48.0 kHz, Lossy, 96.0 kb/s
Format : Windows Media
File size : 1.03 GiB
Duration : 1 h 10 min
Overall bit rate mode : Constant
Overall bit rate : 2 106 kb/s
Maximum Overall bit rate : 2 116 kb/s
Encoded date : UTC 2006-12-15 11:43:04.108

Video
ID : 2
Format : VC-1
Format profile : MP@ML
Codec ID : WMV3
Codec ID/Info : Windows Media Video 9
Codec ID/Hint : WMV3
Description of the codec : Windows Media Video 9
Duration : 1 h 10 min
Bit rate mode : Constant
Bit rate : 2 000 kb/s
Width : 720 pixels
Height : 480 pixels
Display aspect ratio : 3:2
Frame rate : 29.970 (29970/1000) FPS
Standard : NTSC
Color space : YUV
Chroma subsampling : 4:2:0
Bit depth : 8 bits
Scan type : Progressive
Compression mode : Lossy
Bits/(Pixel*Frame) : 0.193
Stream size : 1 003 MiB (95%)
Language : English (United States)

Audio
ID : 1
Format : WMA
Format version : Version 2
Codec ID : 161
Codec ID/Info : Windows Media Audio
Description of the codec : Windows Media Audio 9 - 64 kbps, 48 kHz, stereo (A/V) 1-pass CBR
Duration : 1 h 10 min
Bit rate mode : Constant
Bit rate : 96.0 kb/s
Channel(s) : 2 channels
Sampling rate : 48.0 kHz
Bit depth : 16 bits
Stream size : 48.1 MiB (5%)
Language : English (United States)


Трекер:  [ 01-Июн-2017 08:00 ]

  

Скачать .torrent

Размер .torrent файла 10 KB


Размер: 1.03 GB
Хэш (hash) релиза: cef2a164c729fc6e0542acf6bb109a00ff094a85

Еще никто не оставлял запись к записи скачать торрент Shoot Выстрел . Будь первым!

!Обратная связь