Скачать через торрент музыку Верный шанс The Bank Shot бесплатно без регистрации torrent

Если у вас наблюдаются проблемы со скриншотами, переходом по ссылками, скачиванием торрентов - проблемы в блокировщике рекламы AdBlock. #хорошегоДня!


Статистика раздачи
Размер:  238 MB   |    Зарегистрирован:  3 месяца 18 дней   |    .torrent скачан:  16 раз   |   
Раздают:  1  
   
Загрузка...
 
Автор Сообщение

Galfimbul

avatar Galfimbul


Верный шанс / The Bank Shot

[img=right:Qadw6o2L41]
Warning: copy(http://i1370.photobucket.com/albums/ag278/composers..._zpskvzbxnti.jpg): failed to open stream: HTTP request failed! in /home/youpic/public_html/poster_overflow.php on line 30
http://s010.youpic.su/pictures/1496181600/7515d8a03.../img:Qadw6o2L41]Жанр: Score
Композитор: John Morris
Год выпуска диска: 2009
Год выпуска фильма: 1974
Производитель диска: USA
Издатель (лейбл): Kritzerland
Номер по каталогу: KR 20013-5

Аудиокодек: FLAC (*.flac)
Тип рипа: image+.cue
Битрейт аудио: lossless
Продолжительность: 39:55
Источник: собственный рип
Наличие сканов в содержимом раздачи: да (600 dpi)
01. Main Title [02:23.20]
02. Meet Walter Upjohn Ballentine / Planning The Escape [00:33.20]
03. The Escape [01:50.53]
04. Away We Go [01:52.12]
05. On The Road To LA [01:37.17]
06. Nobody Messes With Bulldog Streiger [01:52.47]
07. Streiger On The Trail [00:21.56]
08. Groovy LA [05:27.29]
09. The Bank Shot [03:33.26]
10. Planning The Shot [00:56.64]
11. The Bank On Wheels [03:13.43]
12. A Merry Freeway Chase [02:45.65]
13. A Beautiful Shot [01:08.20]
14. Silhouettes On Parade [01:20.59]
15. Streiger Closes In [01:19.14]
16. Moving The Bank [01:52.69]
17. Chasing The Bank [01:51.13]
18. Parting Shot - The End [00:53.01]

Bonus Tracks
19. Original Main Title [02:38.34]
20. Alternate Main Title [02:23.13]
Exact Audio Copy V1.0 beta 3 from 29. August 2011

EAC extraction logfile from 29. March 2013, 17:44

John Morris / Bank Shot

Used drive : TSSTcorpCDDVDW SH-S202H Adapter: 0 ID: 0

Read mode : SecureUtilize accurate stream : YesDefeat audio cache : YesMake use of C2 pointers : No

Read offset correction : 6Overread into Lead-In and Lead-Out : NoFill up missing offset samples with silence : YesDelete leading and trailing silent blocks : NoNull samples used in CRC calculations : YesUsed interface : Native Win32 interface for Win NT & 2000

Used output format : Internal WAV RoutinesSample format : 44.100 Hz; 16 Bit; Stereo

TOC of the extracted CD

Track | Start | Length | Start sector | End sector --------------------------------------------------------- 1 | 0:00.00 | 2:23.20 | 0 | 10744 2 | 2:23.20 | 0:33.20 | 10745 | 13239 3 | 2:56.40 | 1:50.53 | 13240 | 21542 4 | 4:47.18 | 1:52.12 | 21543 | 29954 5 | 6:39.30 | 1:37.17 | 29955 | 37246 6 | 8:16.47 | 1:52.47 | 37247 | 45693 7 | 10:09.19 | 0:21.56 | 45694 | 47324 8 | 10:31.00 | 5:27.29 | 47325 | 71878 9 | 15:58.29 | 3:33.26 | 71879 | 87879 10 | 19:31.55 | 0:56.64 | 87880 | 92143 11 | 20:28.44 | 3:13.43 | 92144 | 106661 12 | 23:42.12 | 2:45.65 | 106662 | 119101 13 | 26:28.02 | 1:08.20 | 119102 | 124221 14 | 27:36.22 | 1:20.59 | 124222 | 130280 15 | 28:57.06 | 1:19.14 | 130281 | 136219 16 | 30:16.20 | 1:52.69 | 136220 | 144688 17 | 32:09.14 | 1:51.13 | 144689 | 153026 18 | 34:00.27 | 0:53.01 | 153027 | 157002 19 | 34:53.28 | 2:38.34 | 157003 | 168886 20 | 37:31.62 | 2:23.13 | 168887 | 179624

Range status and errors

Selected range

Filename D:\John Morris - Bank Shot\John Morris - Bank Shot.wav

Peak level 99.4 % Extraction speed 6.5 X Range quality 100.0 % Test CRC E4FEF891 Copy CRC E4FEF891 Copy OK

No errors occurred

AccurateRip summary

Track 1 accurately ripped (confidence 3) [84BF3A40] (AR v1)Track 2 accurately ripped (confidence 3) [5687FD25] (AR v1)Track 3 accurately ripped (confidence 3) [DEA1C065] (AR v1)Track 4 accurately ripped (confidence 3) [5739F67F] (AR v1)Track 5 accurately ripped (confidence 3) [839F99E3] (AR v1)Track 6 accurately ripped (confidence 3) [7A2CC7C2] (AR v1)Track 7 accurately ripped (confidence 3) [6A9E8B2B] (AR v1)Track 8 accurately ripped (confidence 3) [D9E85064] (AR v1)Track 9 accurately ripped (confidence 3) [02FD4046] (AR v1)Track 10 accurately ripped (confidence 3) [B928E487] (AR v1)Track 11 accurately ripped (confidence 3) [A65B2E65] (AR v1)Track 12 accurately ripped (confidence 3) [EFFBB993] (AR v1)Track 13 accurately ripped (confidence 3) [98D944FF] (AR v1)Track 14 accurately ripped (confidence 3) [4531E49E] (AR v1)Track 15 accurately ripped (confidence 3) [5EAFDA14] (AR v1)Track 16 accurately ripped (confidence 3) [28B74DF0] (AR v1)Track 17 accurately ripped (confidence 3) [D715F164] (AR v1)Track 18 accurately ripped (confidence 3) [071F32F9] (AR v1)Track 19 accurately ripped (confidence 3) [B73D2C5D] (AR v1)Track 20 accurately ripped (confidence 3) [7E3D10D3] (AR v1)

All tracks accurately ripped

End of status report

==== Log checksum 5F46BE2267CEB9C41A3EC189588733801B234F8969E256BC54970782C872FADE ====
Вниманию почтенной публики предлагается саундтрек к фильму Верный шанс.
Фильм про то, как НАДО грабить банки - с размахом! Ну, то есть, украсть его целиком.
Музыку написал замечательный композитор Джон Моррис (известный по работам с Мэлом Бруксом). Так что нас ждет море легкой и веселой музыки.


Трекер:  [ 31-Май-2017 19:00 ]

  

Скачать .torrent

Размер .torrent файла 19 KB


Размер: 238 MB
Хэш (hash) релиза: 09215017f1b0e2ff2d090cf813eaa3130f3b03ec

Торренты, похожие на Верный шанс The Bank Shot скачать торрент

Форум Название Автор Размер S L Добавлен
Саундтреки к фильмам и мультфильмам (mp3) ·· (Score) Верный шанс / The Bank Shot (by John Morris) - 2009 (1974), MP3, 320 kbps Galfimbul 9589145191 MB 0 0 1496251655

20:27

31-Май-17

Еще никто не оставлял запись к записи скачать торрент Верный шанс The Bank Shot . Будь первым!

!Обратная связь