Скачать через торрент музыку Пушистая розовая ночная рубашка Дыхание скандала бесплатно без регистрации torrent

Если у вас наблюдаются проблемы со скриншотами, переходом по ссылками, скачиванием торрентов - проблемы в блокировщике рекламы AdBlock. #хорошегоДня!


Статистика раздачи
Размер:  344 MB   |    Зарегистрирован:  3 месяца 18 дней   |    .torrent скачан:  16 раз   |   
Раздают:  1  
   
Загрузка...
 
Автор Сообщение

Galfimbul

avatar Galfimbul


Пушистая розовая ночная рубашка / Дыхание скандала / The Fuzzy Pink Nightgown / A Breath Of Scandal

Жанр: Score
Композитор: Billy May / Alessandro Cicognini
Год выпуска диска: 2012
Год выпуска фильма: 1957 / 1960
Производитель диска: USA
Издатель (лейбл): Kritzerland
Номер по каталогу: KR 20021-4

Аудиокодек: FLAC (*.flac)
Тип рипа: image+.cue
Битрейт аудио: lossless
Продолжительность: 64:17
Источник: собственный рип
Наличие сканов в содержимом раздачи: да (600 dpi)
The Fuzzy Pink Nightgown
01. Introduction [02:28.07]
02. "Coming Next Week" [01:01.10]
03. Kidnapping Scene [02:06.43]
04. Travelogue [01:18.56]
05. Beach House [03:14.49]
06. Malibu Beach Mambo [01:40.10]
07. Dandy [03:07.50]
08. Fuzzy Pink Nightgown [01:43.56]
09. Patio [03:36.14]
10. Laurel's Theme [04:49.17]
11. No Hard Feelings [02:18.63]
12. End Title [02:55.17]

A Breath Of Scandal
13. Prelude / Marcia Alla Tedesca / Olympia / Can-Can [06:12.64]
14. / A Breath Of Scandal [02:09.67]
performed by Maurice Chevalier
15. Courtly Humor / Olympia [03:57.36]
16. A Breath Of Scandal [00:59.43]
performed by Maurice Chevalier
17. Austrian March No.1 / A Smile In Vienna [03:23.56]
18. Hapsburg Waltz / Austrian March No. 2 / Lovely Olympia / Tender Thoughts [07:01.07]
19. A Breath Of Scandal [02:09.67]
performed by Maurice Chevalier
20. Lovesick / Prince Phillip Waltz [04:17.33]
21. A Breath Of Scandal [00:59.43]
performed by Maurice Chevalier
22. Austrian Dreams Waltz / Finale [02:45.45]
Exact Audio Copy V1.0 beta 3 from 29. August 2011

EAC extraction logfile from 25. March 2013, 23:19

Billy May / Alessandro Cicognini / The Fuzzy Pink Nightgown / A Breath Of Scandal

Used drive : TSSTcorpCDDVDW SH-S202H Adapter: 0 ID: 0

Read mode : SecureUtilize accurate stream : YesDefeat audio cache : YesMake use of C2 pointers : No

Read offset correction : 6Overread into Lead-In and Lead-Out : NoFill up missing offset samples with silence : YesDelete leading and trailing silent blocks : NoNull samples used in CRC calculations : YesUsed interface : Native Win32 interface for Win NT & 2000

Used output format : Internal WAV RoutinesSample format : 44.100 Hz; 16 Bit; Stereo

TOC of the extracted CD

Track | Start | Length | Start sector | End sector --------------------------------------------------------- 1 | 0:00.00 | 2:28.07 | 0 | 11106 2 | 2:28.07 | 1:01.10 | 11107 | 15691 3 | 3:29.17 | 2:06.43 | 15692 | 25184 4 | 5:35.60 | 1:18.56 | 25185 | 31090 5 | 6:54.41 | 3:14.49 | 31091 | 45689 6 | 10:09.15 | 1:40.10 | 45690 | 53199 7 | 11:49.25 | 3:07.50 | 53200 | 67274 8 | 14:57.00 | 1:43.56 | 67275 | 75055 9 | 16:40.56 | 3:36.14 | 75056 | 91269 10 | 20:16.70 | 4:49.17 | 91270 | 112961 11 | 25:06.12 | 2:18.63 | 112962 | 123374 12 | 27:25.00 | 2:55.17 | 123375 | 136516 13 | 30:20.17 | 6:12.64 | 136517 | 164480 14 | 36:33.06 | 2:09.67 | 164481 | 174222 15 | 38:42.73 | 3:57.36 | 174223 | 192033 16 | 42:40.34 | 0:59.43 | 192034 | 196501 17 | 43:40.02 | 3:23.56 | 196502 | 211782 18 | 47:03.58 | 7:01.07 | 211783 | 243364 19 | 54:04.65 | 2:09.67 | 243365 | 253106 20 | 56:14.57 | 4:17.33 | 253107 | 272414 21 | 60:32.15 | 0:59.43 | 272415 | 276882 22 | 61:31.58 | 2:45.45 | 276883 | 289302

Range status and errors

Selected range

Filename D:\Billy May , Alessandro Cicognini - The Fuzzy Pink Nightgown , A Breath Of Scandal\Billy May , Alessandro Cicognini - The Fuzzy Pink Nightgown , A Breath Of Scandal.wav

Peak level 93.1 % Extraction speed 7.2 X Range quality 100.0 % Test CRC B7856EC4 Copy CRC B7856EC4 Copy OK

No errors occurred

AccurateRip summary

Track 1 accurately ripped (confidence 1) [8BD9BDC2] (AR v2)Track 2 accurately ripped (confidence 1) [F9669AB5] (AR v2)Track 3 accurately ripped (confidence 1) [A9DC31E8] (AR v2)Track 4 accurately ripped (confidence 1) [F1885CF9] (AR v2)Track 5 accurately ripped (confidence 1) [91AE9974] (AR v2)Track 6 accurately ripped (confidence 1) [01B0C0B8] (AR v2)Track 7 accurately ripped (confidence 1) [DA3E20AE] (AR v2)Track 8 accurately ripped (confidence 1) [EE23BAEC] (AR v2)Track 9 accurately ripped (confidence 1) [71ECAB2A] (AR v2)Track 10 accurately ripped (confidence 1) [2F4D4ADC] (AR v2)Track 11 accurately ripped (confidence 1) [B57CD2E4] (AR v2)Track 12 accurately ripped (confidence 1) [5D72140A] (AR v2)Track 13 accurately ripped (confidence 1) [18D49716] (AR v2)Track 14 accurately ripped (confidence 1) [6F8D2E42] (AR v2)Track 15 accurately ripped (confidence 1) [C01F6EF1] (AR v2)Track 16 accurately ripped (confidence 1) [4974EBCE] (AR v2)Track 17 accurately ripped (confidence 1) [BFDE6B7C] (AR v2)Track 18 accurately ripped (confidence 1) [9B5F162E] (AR v2)Track 19 accurately ripped (confidence 1) [6F8D2E42] (AR v2)Track 20 accurately ripped (confidence 1) [C899A26E] (AR v2)Track 21 accurately ripped (confidence 1) [4974EBCE] (AR v2)Track 22 accurately ripped (confidence 1) [201D1CA3] (AR v2)

All tracks accurately ripped

End of status report

==== Log checksum 239AF5C764282A7C44576DA17862E09544F072895394CE3D98F9BDCD7BDBBCF4 ====
Два саундтрека к милым и добрым комедиям по цене одного!
На сей раз "пару" образовали Билли Мэй (и его Пушистая розовая ночная рубашка) и Алессандро Чиконини (с Дыханием скандала).
Первый - более ритмичный и джазовый, второй - более романтичный и классический.
Что их объединяет, так это то, что после прослушивания вы эти мелодии вряд ли сразу забудете. А это значит - перед нами по-настоящему хорогая и качественная музыка.


Трекер:  [ 31-Май-2017 18:30 ]

  

Скачать .torrent

Размер .torrent файла 15 KB


Размер: 344 MB
Хэш (hash) релиза: 8e8b99a6c594e7af2883eb20c7ef42f836b32d4c

Торренты, похожие на Пушистая розовая ночная рубашка Дыхание скандала скачать торрент

Форум Название Автор Размер S L Добавлен
Саундтреки к фильмам и мультфильмам (mp3) ·· (Score) Пушистая розовая ночная рубашка / Дыхание скандала / The Fuzzy Pink Nightgown / A Breath Of Scandal (by Billy May / Alessandro Cicognini) - 2012 (1957 / 1960), MP3, 320 kbps Galfimbul 154543943147 MB 0 0 1496250300

20:05

31-Май-17

Еще никто не оставлял запись к записи скачать торрент Пушистая розовая ночная рубашка Дыхание скандала . Будь первым!

!Обратная связь