Скачать через торрент музыку Пираты Карибского моря: Мертвецы не рассказывают сказки Pirates Of The Caribbean: Dead Men Tell No Tales бесплатно без регистрации torrent

Если у вас наблюдаются проблемы со скриншотами, переходом по ссылками, скачиванием торрентов - проблемы в блокировщике рекламы AdBlock. #хорошегоДня!


Статистика раздачи
Размер:  377 MB   |    Зарегистрирован:  3 месяца 26 дней   |    .torrent скачан:  32 раза   |   
Раздают:  1  
   
Загрузка...
 
Автор Сообщение

Galfimbul

avatar Galfimbul


Пираты Карибского моря: Мертвецы не рассказывают сказки / Pirates Of The Caribbean: Dead Men Tell No Tales

Название альбома: Pirates Of The Caribbean: Dead Men Tell No Tales
Жанр: Score
Композитор: Geoff Zanelli
Год выпуска диска: 2017
Год выпуска фильма: 2017
Производитель диска: United States
Издатель (лейбл): Walt Disney Records
Номер по каталогу: 0050087348229
Аудиокодек: FLAC
Тип рипа: tracks+.cue
Битрейт аудио: lossless
Продолжительность: 01:15:13
Источник: Спасибо, Filex
Наличие сканов в содержимом раздачи: да
01. Geoff Zanelli - Dead Men Tell No Tales (1:51)
02. Geoff Zanelli - Salazar (4:27)
03. Geoff Zanelli - No Woman Has Ever Handled My Herschel (3:59)
04. Geoff Zanelli - You Speak of the Trident (1:58)
05. Geoff Zanelli - The Devil's Triangle (2:45)
06. Geoff Zanelli - Shansa (3:12)
07. Geoff Zanelli - Kill the Filthy Pirate, I'll Wait (4:50)
08. Geoff Zanelli - The Dying Gull (1:01)
09. Geoff Zanelli - El Matador Del Mar (8:05)
10. Geoff Zanelli - Kill the Sparrow (6:16)
11. Geoff Zanelli - She Needs the Sea (2:32)
12. Geoff Zanelli - The Brightest Star in the North (6:00)
13. Geoff Zanelli - I've Come With the Butcher's Bill (6:41)
14. Geoff Zanelli - The Power of the Sea (4:07)
15. Geoff Zanelli - Treasure (5:43)
16. Geoff Zanelli - My Name Is Barbossa (5:34)
17. Geoff Zanelli - Beyond My Beloved Horizon (2:41)
Exact Audio Copy V1.3 from 2. September 2016

EAC extraction logfile from 30. May 2017, 11:39

Geoff Zanelli / Pirates Of The Caribbean: Dead Men Tell No Tales

Used drive : PLEXTOR CD-R PX-230A Adapter: 1 ID: 0

Read mode : SecureUtilize accurate stream : YesDefeat audio cache : YesMake use of C2 pointers : No

Read offset correction : 738Overread into Lead-In and Lead-Out : NoFill up missing offset samples with silence : YesDelete leading and trailing silent blocks : NoNull samples used in CRC calculations : YesUsed interface : Native Win32 interface for Win NT & 2000Gap handling : Appended to previous track

Used output format : User Defined EncoderSelected bitrate : 1024 kBit/sQuality : HighAdd ID3 tag : NoCommand line compressor : C:\Program Files\Exact Audio Copy\Flac\flac.exeAdditional command line options : -6 -V -T "ARTIST=%artist%" -T "TITLE=%title%" -T "ALBUM=%albumtitle%" -T "DATE=%year%" -T "TRACKNUMBER=%tracknr%" -T "GENRE=%genre%" -T "COMMENT=%comment%" -T "ALBUMARTIST=%albuminterpret%" -T "COMPOSER=%composer%" -T "DISCNUMBER=%cdnumber%" -T "TOTALDISCS=%totalcds%" -T "TOTALTRACKS=%numtracks%" %source% -o %dest%

TOC of the extracted CD

Track | Start | Length | Start sector | End sector --------------------------------------------------------- 1 | 0:00.00 | 1:51.08 | 0 | 8332 2 | 1:51.08 | 4:27.18 | 8333 | 28375 3 | 6:18.26 | 3:58.52 | 28376 | 46277 4 | 10:17.03 | 1:57.40 | 46278 | 55092 5 | 12:14.43 | 2:44.56 | 55093 | 67448 6 | 14:59.24 | 3:12.16 | 67449 | 81864 7 | 18:11.40 | 4:49.38 | 81865 | 103577 8 | 23:01.03 | 1:01.21 | 103578 | 108173 9 | 24:02.24 | 8:04.54 | 108174 | 144527 10 | 32:07.03 | 6:15.50 | 144528 | 172702 11 | 38:22.53 | 2:32.23 | 172703 | 184125 12 | 40:55.01 | 5:59.51 | 184126 | 211101 13 | 46:54.52 | 6:41.36 | 211102 | 241212 14 | 53:36.13 | 4:07.33 | 241213 | 259770 15 | 57:43.46 | 5:42.57 | 259771 | 285477 16 | 63:26.28 | 5:33.41 | 285478 | 310493 17 | 68:59.69 | 2:40.68 | 310494 | 322561

Track 1

Filename C:\Ripped by Filex\01 - Dead Men Tell No Tales.wav

Pre-gap length 0:00:02.00

Peak level 97.7 % Extraction speed 5.0 X Track quality 100.0 % Test CRC 01FC3DDA Copy CRC 01FC3DDA Track not present in AccurateRip database Copy OK

Track 2

Filename C:\Ripped by Filex\02 - Salazar.wav

Peak level 97.7 % Extraction speed 5.3 X Track quality 99.9 % Test CRC 1D9BCEFA Copy CRC 1D9BCEFA Track not present in AccurateRip database Copy OK

Track 3

Filename C:\Ripped by Filex\03 - No Woman Has Ever Handled My Herschel.wav

Peak level 97.7 % Extraction speed 5.6 X Track quality 99.9 % Test CRC 566623B3 Copy CRC 566623B3 Track not present in AccurateRip database Copy OK

Track 4

Filename C:\Ripped by Filex\04 - You Speak of the Trident.wav

Peak level 97.7 % Extraction speed 5.0 X Track quality 99.9 % Test CRC 0D584621 Copy CRC 0D584621 Track not present in AccurateRip database Copy OK

Track 5

Filename C:\Ripped by Filex\05 - The Devil's Triangle.wav

Peak level 97.7 % Extraction speed 6.4 X Track quality 100.0 % Test CRC 8476B9D1 Copy CRC 8476B9D1 Track not present in AccurateRip database Copy OK

Track 6

Filename C:\Ripped by Filex\06 - Shansa.wav

Peak level 97.7 % Extraction speed 5.9 X Track quality 99.9 % Test CRC 29FC95BA Copy CRC 29FC95BA Track not present in AccurateRip database Copy OK

Track 7

Filename C:\Ripped by Filex\07 - Kill the Filthy Pirate, I'll Wait.wav

Peak level 97.7 % Extraction speed 6.8 X Track quality 99.9 % Test CRC 5F5D6B58 Copy CRC 5F5D6B58 Track not present in AccurateRip database Copy OK

Track 8

Filename C:\Ripped by Filex\08 - The Dying Gull.wav

Peak level 97.7 % Extraction speed 6.2 X Track quality 100.0 % Test CRC C17F1417 Copy CRC C17F1417 Track not present in AccurateRip database Copy OK

Track 9

Filename C:\Ripped by Filex\09 - El Matador Del Mar.wav

Peak level 97.7 % Extraction speed 7.8 X Track quality 99.9 % Test CRC C118391F Copy CRC C118391F Track not present in AccurateRip database Copy OK

Track 10

Filename C:\Ripped by Filex\10 - Kill the Sparrow.wav

Peak level 97.7 % Extraction speed 8.6 X Track quality 100.0 % Test CRC FDB2F111 Copy CRC FDB2F111 Track not present in AccurateRip database Copy OK

Track 11

Filename C:\Ripped by Filex\11 - She Needs the Sea.wav

Peak level 97.7 % Extraction speed 8.3 X Track quality 100.0 % Test CRC B97F9905 Copy CRC B97F9905 Track not present in AccurateRip database Copy OK

Track 12

Filename C:\Ripped by Filex\12 - The Brightest Star in the North.wav

Peak level 97.7 % Extraction speed 9.1 X Track quality 100.0 % Test CRC 2788CEAD Copy CRC 2788CEAD Track not present in AccurateRip database Copy OK

Track 13

Filename C:\Ripped by Filex\13 - I've Come With the Butcher's Bill.wav

Peak level 97.7 % Extraction speed 9.4 X Track quality 100.0 % Test CRC 15139FAA Copy CRC 15139FAA Track not present in AccurateRip database Copy OK

Track 14

Filename C:\Ripped by Filex\14 - The Power of the Sea.wav

Peak level 97.7 % Extraction speed 9.1 X Track quality 100.0 % Test CRC D7489FC9 Copy CRC D7489FC9 Track not present in AccurateRip database Copy OK

Track 15

Filename C:\Ripped by Filex\15 - Treasure.wav

Peak level 98.8 % Extraction speed 9.8 X Track quality 100.0 % Test CRC 3E5A6519 Copy CRC 3E5A6519 Track not present in AccurateRip database Copy OK

Track 16

Filename C:\Ripped by Filex\16 - My Name Is Barbossa.wav

Peak level 97.7 % Extraction speed 8.4 X Track quality 100.0 % Test CRC CDB03F5B Copy CRC CDB03F5B Track not present in AccurateRip database Copy OK

Track 17

Filename C:\Ripped by Filex\17 - Beyond My Beloved Horizon.wav

Peak level 97.7 % Extraction speed 5.5 X Track quality 100.0 % Test CRC 375DB383 Copy CRC 375DB383 Track not present in AccurateRip database Copy OK

None of the tracks are present in the AccurateRip database

No errors occurred

End of status report

---- CUETools DB Plugin V2.1.6

[CTDB TOCID: nmz.re4_MgHLh8pwt86gCpIe7a4-] foundSubmit result: nmz.re4_MgHLh8pwt86gCpIe7a4- has been confirmedTrack | CTDB Status 1 | (10/10) Accurately ripped 2 | (10/10) Accurately ripped 3 | (10/10) Accurately ripped 4 | (10/10) Accurately ripped 5 | (10/10) Accurately ripped 6 | (10/10) Accurately ripped 7 | (10/10) Accurately ripped 8 | (10/10) Accurately ripped 9 | (10/10) Accurately ripped 10 | (10/10) Accurately ripped 11 | (10/10) Accurately ripped 12 | ( 9/10) Accurately ripped 13 | ( 9/10) Accurately ripped 14 | ( 9/10) Accurately ripped 15 | ( 9/10) Accurately ripped 16 | ( 9/10) Accurately ripped 17 | ( 9/10) Accurately ripped

==== Log checksum 1221B7F5A7B13CE832FAF881C7F5B59CC39C33F743BC99846D13C5D914D90150 ====
REM GENRE SoundtrackREM DATE 2017REM DISCID E310CC11REM COMMENT "ExactAudioCopy v1.3"PERFORMER "Geoff Zanelli"TITLE "Pirates of the Caribbean: Dead Men Tell No Tales"REM COMPOSER "Geoff Zanelli"FILE "01 - Dead Men Tell No Tales.wav" WAVE TRACK 01 AUDIO TITLE "Dead Men Tell No Tales" PERFORMER "Geoff Zanelli" REM COMPOSER "Geoff Zanelli" INDEX 01 00:00:00FILE "02 - Salazar.wav" WAVE TRACK 02 AUDIO TITLE "Salazar" PERFORMER "Geoff Zanelli" REM COMPOSER "Geoff Zanelli" INDEX 01 00:00:00FILE "03 - No Woman Has Ever Handled My Herschel.wav" WAVE TRACK 03 AUDIO TITLE "No Woman Has Ever Handled My Herschel" PERFORMER "Geoff Zanelli" REM COMPOSER "Geoff Zanelli" INDEX 01 00:00:00FILE "04 - You Speak of the Trident.wav" WAVE TRACK 04 AUDIO TITLE "You Speak of the Trident" PERFORMER "Geoff Zanelli" REM COMPOSER "Geoff Zanelli" INDEX 01 00:00:00FILE "05 - The Devil's Triangle.wav" WAVE TRACK 05 AUDIO TITLE "The Devil's Triangle" PERFORMER "Geoff Zanelli" REM COMPOSER "Geoff Zanelli" INDEX 01 00:00:00FILE "06 - Shansa.wav" WAVE TRACK 06 AUDIO TITLE "Shansa" PERFORMER "Geoff Zanelli" REM COMPOSER "Geoff Zanelli" INDEX 01 00:00:00FILE "07 - Kill the Filthy Pirate, I'll Wait.wav" WAVE TRACK 07 AUDIO TITLE "Kill the Filthy Pirate, I'll Wait" PERFORMER "Geoff Zanelli" REM COMPOSER "Geoff Zanelli" INDEX 01 00:00:00FILE "08 - The Dying Gull.wav" WAVE TRACK 08 AUDIO TITLE "The Dying Gull" PERFORMER "Geoff Zanelli" REM COMPOSER "Geoff Zanelli" INDEX 01 00:00:00FILE "09 - El Matador Del Mar.wav" WAVE TRACK 09 AUDIO TITLE "El Matador Del Mar" PERFORMER "Geoff Zanelli" REM COMPOSER "Geoff Zanelli" INDEX 01 00:00:00FILE "10 - Kill the Sparrow.wav" WAVE TRACK 10 AUDIO TITLE "Kill the Sparrow" PERFORMER "Geoff Zanelli" REM COMPOSER "Geoff Zanelli" INDEX 01 00:00:00FILE "11 - She Needs the Sea.wav" WAVE TRACK 11 AUDIO TITLE "She Needs the Sea" PERFORMER "Geoff Zanelli" REM COMPOSER "Geoff Zanelli" INDEX 01 00:00:00FILE "12 - The Brightest Star in the North.wav" WAVE TRACK 12 AUDIO TITLE "The Brightest Star in the North" PERFORMER "Geoff Zanelli" REM COMPOSER "Geoff Zanelli" INDEX 01 00:00:00FILE "13 - I've Come With the Butcher's Bill.wav" WAVE TRACK 13 AUDIO TITLE "I've Come With the Butcher's Bill" PERFORMER "Geoff Zanelli" REM COMPOSER "Geoff Zanelli" INDEX 01 00:00:00FILE "14 - The Power of the Sea.wav" WAVE TRACK 14 AUDIO TITLE "The Power of the Sea" PERFORMER "Geoff Zanelli" REM COMPOSER "Geoff Zanelli" INDEX 01 00:00:00FILE "15 - Treasure.wav" WAVE TRACK 15 AUDIO TITLE "Treasure" PERFORMER "Geoff Zanelli" REM COMPOSER "Geoff Zanelli" INDEX 01 00:00:00FILE "16 - My Name Is Barbossa.wav" WAVE TRACK 16 AUDIO TITLE "My Name Is Barbossa" PERFORMER "Geoff Zanelli" REM COMPOSER "Geoff Zanelli" INDEX 01 00:00:00FILE "17 - Beyond My Beloved Horizon.wav" WAVE TRACK 17 AUDIO TITLE "Beyond My Beloved Horizon" PERFORMER "Geoff Zanelli" REM COMPOSER "Geoff Zanelli" INDEX 01 00:00:00
RG Soundtracks

Трекер:  [ 30-Май-2017 20:00 ]

  

Скачать .torrent

Размер .torrent файла 16 KB


Размер: 377 MB
Хэш (hash) релиза: bf1db2c910a44910f66a06fe4f0cb80c33e3f8b1

Торренты, похожие на Пираты Карибского моря: Мертвецы не рассказывают сказки Pirates Of The Caribbean: Dead Men Tell No Tales скачать торрент

Форум Название Автор Размер S L Добавлен
Саундтреки к фильмам и мультфильмам (mp3) ·· (Score) Пираты Карибского моря: Мертвецы не рассказывают сказки / Pirates Of The Caribbean: Dead Men Tell No Tales (Geoff Zanelli) - 2017, MP3, 320 kbps Galfimbul 181755745173 MB 0 0 1495742843

23:07

25-Май-17

Еще никто не оставлял запись к записи скачать торрент Пираты Карибского моря: Мертвецы не рассказывают сказки Pirates Of The Caribbean: Dead Men Tell No Tales . Будь первым!

!Обратная связь