2.22: torrent

, , - AdBlock. #!


23.72 GB   |    :  6    |    .torrent :  41    |   
1  
   
...
 

Galfimbul

avatar Galfimbul


2.22: () / Evangelion Shin Gekijouban: Ha / Evangelion: 2.0 You Can (Not) Advance

:
: 2009 .
: , ,
: Movie
: 108 .
:
: : , , ? , ,

. : . - .: BDRip
:
: MKV
:
/ : Kuji Kita
: AVC, 8 , 1920x1080, 4 945 kbps, 23.976 fps
1: AC3, 320 kbps, 48 kHz, 2 ch ( )
2: AC3, 640 kbps, 48 kHz, 5.1 ch ( )
3: AC3, 320 kbps, 48 kHz, 2 ch ( ) ; : ,
4: AC3, 640 kbps, 48 kHz, 5.1 ch ( ) ; : ,
5: DTS-HD MA, 3 788 kbps, 48 kHz, 5.1 ch (DTS Core, 1 509 kbps, 48 kHz, 5.1 ch) ( )
6: DTS-HD MA, 4 290 kbps, 48 kHz, 6.1 ch (DTS-ES Discrete, 1 509 kbps, 48 kHz, 6.1 ch / DTS Core, 1 509 kbps, 48 kHz, 5.1 ch) ( )
7: DTS-HD MA, 4 360 kbps, 48 kHz, 7.1 ch (DTS-ES Matrix, 1 509 kbps, 48 kHz, 6.1 ch / DTS Core, 1 509 kbps, 48 kHz, 5.1 ch) ( )
8: LPCM, 2 304 kbps, 48 kHz, 2 ch ( )
9: DTS-HD MA, 4 245 kbps, 48 kHz, 5.1 ch (DTS Core, 1 509 kbps, 48 kHz, 5.1 ch) ( ) ; : ,
10: LPCM, 2 304 kbps, 48 kHz, 2 ch ( ) ; : ,
: PGS, (/) ; :
<div class="sp-wrap">
<div class="sp-head folded">avdump</div>
<div class="sp-body">
File: H:\E\[Kuji Kita]\[Kuji Kita] Evangelion 2.0 - You Can (Not) Advance\[Kuji Kita] Evangelion 2.0 - You Can (Not) Advance [1920x1080 x264 AC3].mkv
Duration: 01:52:10 (6729.6)
Track #1: default video
lang: und (1)
codc: V_MPEG4/ISO/AVC -> H264/AVC (22)
reso: 1920x1080 -> 16:9
fram: 23.976 fps
rate: 4945 kbps (4945.39)
dura: 01:52:10 (6729.51)
size: 3.87 GB (4160008627)
Track #2: audio (Japanese AC3 2.0)
lang: jpn -> Japanese (2)
codc: A_AC3 -> AC3 (2)
chan: 2 -> Stereo
samp: 48000 Hz
rate: 320 kbps (320.04)
dura: 01:52:09 (6729.31)
size: 256.74 MB (269210368)
Track #3: audio (Japanese AC3 5.1)
lang: jpn -> Japanese (2)
codc: A_AC3 -> AC3 (2)
chan: 6 -> 5.1 Surround
samp: 48000 Hz
rate: 640 kbps (640.04)
dura: 01:52:10 (6729.57)
size: 513.45 MB (538395665)
Track #4: default audio (Russian AC3 2.0)
lang: rus -> Russian (15)
codc: A_AC3 -> AC3 (2)
chan: 2 -> Stereo
samp: 48000 Hz
rate: 320 kbps (320.04)
dura: 01:52:09 (6729.31)
size: 256.74 MB (269210364)
Track #5: audio (Russian AC3 5.1)
lang: rus -> Russian (15)
codc: A_AC3 -> AC3 (2)
chan: 6 -> 5.1 Surround
samp: 48000 Hz
rate: 640 kbps (640.06)
dura: 01:52:09 (6729.31)
size: 513.45 MB (538393098)
Track #6: subtitles (Full)
lang: rus -> Russian (15)
type: S_HDMV/PGS -> Unknown (1)
size: 27.33 MB (28657375)
Track #7: default subtitles (Notes)
lang: rus -> Russian (15)
type: S_HDMV/PGS -> Unknown (1)
size: 1.40 MB (1472658)
Sizes: (check sanity)
disk: 5.41 GB (5807544056)
trac: 5.41 GB (5805348155) [based on track size]
bitr: 5.38 GB (5775246133) [based on bitrate]
tdif: 2.09 MB (2195901) 0.03%
bdif: 30.80 MB (32297922) 0.55%
General
Unique ID : 171377656261833377387770833631572770006 (0x80EE22D0DA958D578AC73014E59DBCD6)
Complete name : H:\E\[Kuji Kita]\[Kuji Kita] Evangelion 2.0 - You Can (Not) Advance\[Kuji Kita] Evangelion 2.0 - You Can (Not) Advance [1920x1080 x264 AC3].mkv
Format : Matroska
Format version : Version 4 / Version 2
File size : 5.41 GiB
Duration : 1 h 52 min
Overall bit rate : 6 904 kb/s
Encoded date : UTC 2017-05-29 21:51:44
Writing application : mkvmerge v10.0.0 ('To Drown In You') 32bit
Writing library : libebml v1.3.4 + libmatroska v1.4.5

Video
ID : 1
Format : AVC
Format/Info : Advanced Video Codec
Format profile : Main@L4.1
Format settings, CABAC : Yes
Format settings, ReFrames : 4 frames
Codec ID : V_MPEG4/ISO/AVC
Duration : 1 h 52 min
Bit rate mode : Constant
Bit rate : 5 000 kb/s / 5 000 kb/s
Width : 1 920 pixels
Height : 1 080 pixels
Display aspect ratio : 16:9
Frame rate mode : Constant
Frame rate : 23.976 (24000/1001) FPS
Color space : YUV
Chroma subsampling : 4:2:0
Bit depth : 8 bits
Scan type : Progressive
Bits/(Pixel*Frame) : 0.101
Stream size : 3.87 GiB (72%)
Writing library : x264 core 148 r2744 b97ae06
Encoding settings : cabac=1 / ref=3 / deblock=1:-2:-2 / analyse=0x1:0x111 / me=umh / subme=9 / psy=1 / psy_rd=1.00:0.00 / mixed_ref=1 / me_range=16 / chroma_me=1 / trellis=0 / 8x8dct=0 / cqm=0 / deadzone=21,11 / fast_pskip=0 / chroma_qp_offset=-6 / threads=4 / lookahead_threads=1 / sliced_threads=0 / nr=0 / decimate=1 / interlaced=0 / bluray_compat=0 / constrained_intra=0 / bframes=9 / b_pyramid=2 / b_adapt=2 / b_bias=0 / direct=3 / weightb=1 / open_gop=1 / weightp=2 / keyint=240 / keyint_min=23 / scenecut=40 / intra_refresh=0 / rc_lookahead=40 / rc=2pass / mbtree=1 / bitrate=5000 / ratetol=1.0 / qcomp=0.70 / qpmin=0 / qpmax=69 / qpstep=4 / cplxblur=20.0 / qblur=0.5 / vbv_maxrate=5000 / vbv_bufsize=7500 / nal_hrd=cbr / filler=1 / ip_ratio=1.40 / aq=2:0.60
Default : Yes
Forced : Yes

Audio #1
ID : 2
Format : AC-3
Format/Info : Audio Coding 3
Format settings, Endianness : Big
Codec ID : A_AC3
Duration : 1 h 52 min
Bit rate mode : Constant
Bit rate : 320 kb/s
Channel(s) : 2 channels
Channel positions : Front: L R
Sampling rate : 48.0 kHz
Frame rate : 31.250 FPS (1536 spf)
Bit depth : 16 bits
Compression mode : Lossy
Stream size : 257 MiB (5%)
Title : Japanese AC3 2.0
Language : Japanese
Service kind : Complete Main
Default : No
Forced : No

Audio #2
ID : 3
Format : AC-3
Format/Info : Audio Coding 3
Format settings, Endianness : Big
Codec ID : A_AC3
Duration : 1 h 52 min
Bit rate mode : Constant
Bit rate : 640 kb/s
Channel(s) : 6 channels
Channel positions : Front: L C R, Side: L R, LFE
Sampling rate : 48.0 kHz
Frame rate : 31.250 FPS (1536 spf)
Bit depth : 16 bits
Compression mode : Lossy
Stream size : 513 MiB (9%)
Title : Japanese AC3 5.1
Language : Japanese
Service kind : Complete Main
Default : No
Forced : No

Audio #3
ID : 4
Format : AC-3
Format/Info : Audio Coding 3
Format settings, Endianness : Big
Codec ID : A_AC3
Duration : 1 h 52 min
Bit rate mode : Constant
Bit rate : 320 kb/s
Channel(s) : 2 channels
Channel positions : Front: L R
Sampling rate : 48.0 kHz
Frame rate : 31.250 FPS (1536 spf)
Bit depth : 16 bits
Compression mode : Lossy
Stream size : 257 MiB (5%)
Title : Russian AC3 2.0
Language : Russian
Service kind : Complete Main
Default : Yes
Forced : Yes

Audio #4
ID : 5
Format : AC-3
Format/Info : Audio Coding 3
Format settings, Endianness : Big
Codec ID : A_AC3
Duration : 1 h 52 min
Bit rate mode : Constant
Bit rate : 640 kb/s
Channel(s) : 6 channels
Channel positions : Front: L C R, Side: L R, LFE
Sampling rate : 48.0 kHz
Frame rate : 31.250 FPS (1536 spf)
Bit depth : 16 bits
Compression mode : Lossy
Stream size : 513 MiB (9%)
Title : Russian AC3 5.1
Language : Russian
Service kind : Complete Main
Default : No
Forced : No

Text #1
ID : 6
Format : PGS
Codec ID : S_HDMV/PGS
Codec ID/Info : Picture based subtitle format used on BDs/HD-DVDs
Duration : 1 h 51 min
Bit rate : 34.3 kb/s
Count of elements : 2006
Stream size : 27.3 MiB (0%)
Title : Full
Language : Russian
Default : No
Forced : No

Text #2
ID : 7
Format : PGS
Codec ID : S_HDMV/PGS
Codec ID/Info : Picture based subtitle format used on BDs/HD-DVDs
Duration : 1 h 51 min
Bit rate : 1 761 b/s
Count of elements : 124
Stream size : 1.40 MiB (0%)
Title : Notes
Language : Russian
Default : Yes
Forced : Yes
Video: MPEG4 Video (H264) 1920x1080 23.976fps [V: h264 main L4.1, yuv420p, 1920x1080 [default,forced]]
Audio: Dolby AC3 48000Hz stereo 320kbps [A: Japanese AC3 2.0 [jpn] (ac3, 48000 Hz, stereo, 320 kb/s)]
Audio: Dolby AC3 48000Hz 6ch 640kbps [A: Japanese AC3 5.1 [jpn] (ac3, 48000 Hz, 5.1, 640 kb/s)]
Audio: Dolby AC3 48000Hz stereo 320kbps [A: Russian AC3 2.0 [rus] (ac3, 48000 Hz, stereo, 320 kb/s) [default,forced]]
Audio: Dolby AC3 48000Hz 6ch 640kbps [A: Russian AC3 5.1 [rus] (ac3, 48000 Hz, 5.1, 640 kb/s)]
Subtitle [S: Full [rus] (pgs)]
Subtitle [S: Notes [rus] (pgs) [default,forced]]
</div>
</div>
2978709: , ;
2997140: 1080p, , ;
2997147: BDRip, , ;
3013890, 3023428: , ;
5406042: BDRip.


 ·  , , FAQ-
:  [ 30--2017 01:00 ]

  

.torrent

.torrent 32 KB


: 23.72 GB
(hash) : 2391e4070a05eeee2b421e311c7a8459c85fca02
:
··
...

2.22: . !

!