Скачать через торрент музыку Cinderella Man Нокдаун бесплатно без регистрации torrent

Если у вас наблюдаются проблемы со скриншотами, переходом по ссылками, скачиванием торрентов - проблемы в блокировщике рекламы AdBlock. #хорошегоДня!


Статистика раздачи
Размер:  212 MB   |    Зарегистрирован:  3 месяца 27 дней   |    .torrent скачан:  11 раз   |   
Раздают:  1  
   
Загрузка...
 
Автор Сообщение

Galfimbul

avatar Galfimbul


Cinderella Man / Нокдаун
Жанр: Score
Год выпуска диска: 2005
Производитель диска: USA
Аудио кодек: FLAC
Тип рипа: tracks+.cue
Битрейт аудио: lossless
Продолжительность: 47:01 min.
Трэклист:
01. The Inside Out (1:20)
02. Miff Mole and His Molers - Shim-Me-Sha-Wobble (1:04)
03. Mae (1:16)
04. Change of Fortune (1:16)
05. Weehawken Ferry (2:43)
06. Cold Meat Party (0:40)
07. All Prayed Out (2:39)
08. Bud Freeman and His Windy City Five - Tillie's Downtown Now (2:19)
09. Three Bucks Twenty (1:02)
10. Corn Griffin (1:12)
11. Shoe Polish (0:49)
12. Paul Giamatti - Londonderry Air (0:28)
13. The Hope of the Irish (0:52)
14. Hooverville Funeral (2:54)
15. Fight Day (3:39)
16. Good as Murder (0:52)
17. Roane's Pennsylvanians - We've Got to Put That Sun Back in the Sky (1:27)
18. No Contest (1:08)
19. Pugilism (1:07)
20. Bulldog of Bergen (1:43)
21. Big Right (2:51)
22. 9, 4, 2 Even (1:27)
23. Cinderella Man (4:48)
24. Turtle (3:21)
25. Eddie Cantor with Phil Spitalny's Music - Cheer Up! Smile! Nertz! (4:03)

Релиз взят с waffles.fm; Релизер: tehbread
Exact Audio Copy V0.99 prebeta 4 from 23. January 2008

EAC extraction logfile from 13. November 2008, 8:23

Soundtrack (Music by Thomas Newman) / Cinderella Man

Used drive : PIONEER DVD-RW DVR-111D Adapter: 1 ID: 1

Read mode : SecureUtilize accurate stream : YesDefeat audio cache : YesMake use of C2 pointers : No

Read offset correction : 48Overread into Lead-In and Lead-Out : NoFill up missing offset samples with silence : YesDelete leading and trailing silent blocks : NoNull samples used in CRC calculations : YesUsed interface : Native Win32 interface for Win NT & 2000Gap handling : Appended to previous track

Used output format : User Defined EncoderSelected bitrate : 128 kBit/sQuality : HighAdd ID3 tag : NoCommand line compressor : C:\Program Files\Exact Audio Copy\Flac\flac.exeAdditional command line options : -V -5 -T "artist=%a" -T "title=%t" -T "album=%g" -T "date=%y" -T "tracknumber=%n" -T "genre=%m" %s

TOC of the extracted CD

Track | Start | Length | Start sector | End sector --------------------------------------------------------- 1 | 0:00.00 | 1:20.15 | 0 | 6014 2 | 1:20.15 | 1:03.44 | 6015 | 10783 3 | 2:23.59 | 1:16.35 | 10784 | 16518 4 | 3:40.19 | 1:15.38 | 16519 | 22181 5 | 4:55.57 | 2:43.12 | 22182 | 34418 6 | 7:38.69 | 0:40.37 | 34419 | 37455 7 | 8:19.31 | 2:38.65 | 37456 | 49370 8 | 10:58.21 | 2:19.26 | 49371 | 59821 9 | 13:17.47 | 1:01.48 | 59822 | 64444 10 | 14:19.20 | 1:12.36 | 64445 | 69880 11 | 15:31.56 | 0:48.63 | 69881 | 73543 12 | 16:20.44 | 0:27.62 | 73544 | 75630 13 | 16:48.31 | 0:52.31 | 75631 | 79561 14 | 17:40.62 | 2:54.17 | 79562 | 92628 15 | 20:35.04 | 3:39.10 | 92629 | 109063 16 | 24:14.14 | 0:51.74 | 109064 | 112962 17 | 25:06.13 | 1:27.18 | 112963 | 119505 18 | 26:33.31 | 1:08.32 | 119506 | 124637 19 | 27:41.63 | 1:06.56 | 124638 | 129643 20 | 28:48.44 | 1:42.57 | 129644 | 137350 21 | 30:31.26 | 2:50.51 | 137351 | 150151 22 | 33:22.02 | 1:27.14 | 150152 | 156690 23 | 34:49.16 | 4:48.14 | 156691 | 178304 24 | 39:37.30 | 3:21.11 | 178305 | 193390 25 | 42:58.41 | 4:02.61 | 193391 | 211601

Track 1

Filename F:\EACRips\Soundtrack (Music by Thomas Newman) - 2005 - Cinderella Man\01 - The Inside Out.wav

Pre-gap length 0:00:02.00

Peak level 98.8 % Track quality 100.0 % Test CRC 73CD4391 Copy CRC 73CD4391 Accurately ripped (confidence 3) [15F16B6F] Copy OK

Track 2

Filename F:\EACRips\Soundtrack (Music by Thomas Newman) - 2005 - Cinderella Man\02 - Miff Mole and His Molers - Shim-Me-Sha-Wobble.wav

Peak level 42.7 % Track quality 100.0 % Test CRC 3260FDCD Copy CRC 3260FDCD Accurately ripped (confidence 3) [58A6732A] Copy OK

Track 3

Filename F:\EACRips\Soundtrack (Music by Thomas Newman) - 2005 - Cinderella Man\03 - Mae.wav

Peak level 29.0 % Track quality 100.0 % Test CRC F1C72BC3 Copy CRC F1C72BC3 Accurately ripped (confidence 3) [20E9EE39] Copy OK

Track 4

Filename F:\EACRips\Soundtrack (Music by Thomas Newman) - 2005 - Cinderella Man\04 - Change of Fortune.wav

Peak level 38.0 % Track quality 100.0 % Test CRC 9A6552D7 Copy CRC 9A6552D7 Accurately ripped (confidence 3) [4880FCE1] Copy OK

Track 5

Filename F:\EACRips\Soundtrack (Music by Thomas Newman) - 2005 - Cinderella Man\05 - Weehawken Ferry.wav

Peak level 78.3 % Track quality 100.0 % Test CRC 9B080F1F Copy CRC 9B080F1F Accurately ripped (confidence 3) [4350E030] Copy OK

Track 6

Filename F:\EACRips\Soundtrack (Music by Thomas Newman) - 2005 - Cinderella Man\06 - Cold Meat Party.wav

Peak level 98.8 % Track quality 99.7 % Test CRC 0E9FAA2E Copy CRC 0E9FAA2E Accurately ripped (confidence 3) [62B33BCF] Copy OK

Track 7

Filename F:\EACRips\Soundtrack (Music by Thomas Newman) - 2005 - Cinderella Man\07 - All Prayed Out.wav

Peak level 28.8 % Track quality 100.0 % Test CRC 2B6E2F90 Copy CRC 2B6E2F90 Accurately ripped (confidence 3) [F38C9D3E] Copy OK

Track 8

Filename F:\EACRips\Soundtrack (Music by Thomas Newman) - 2005 - Cinderella Man\08 - Bud Freeman and His Windy City Five - Tillie's Downtown Now.wav

Peak level 37.9 % Track quality 100.0 % Test CRC 5252065E Copy CRC 5252065E Accurately ripped (confidence 3) [5FFA997E] Copy OK

Track 9

Filename F:\EACRips\Soundtrack (Music by Thomas Newman) - 2005 - Cinderella Man\09 - Three Bucks Twenty.wav

Peak level 25.2 % Track quality 100.0 % Test CRC 1AC487ED Copy CRC 1AC487ED Accurately ripped (confidence 3) [45D21766] Copy OK

Track 10

Filename F:\EACRips\Soundtrack (Music by Thomas Newman) - 2005 - Cinderella Man\10 - Corn Griffin.wav

Peak level 98.8 % Track quality 100.0 % Test CRC 6CC500CD Copy CRC 6CC500CD Accurately ripped (confidence 3) [F4A75F34] Copy OK

Track 11

Filename F:\EACRips\Soundtrack (Music by Thomas Newman) - 2005 - Cinderella Man\11 - Shoe Polish.wav

Peak level 25.6 % Track quality 100.0 % Test CRC FFE3C8F2 Copy CRC FFE3C8F2 Accurately ripped (confidence 3) [F2A36BFE] Copy OK

Track 12

Filename F:\EACRips\Soundtrack (Music by Thomas Newman) - 2005 - Cinderella Man\12 - Paul Giamatti - Londonderry Air.wav

Peak level 12.8 % Track quality 100.0 % Test CRC 38E98C1E Copy CRC 38E98C1E Accurately ripped (confidence 3) [7DF95818] Copy OK

Track 13

Filename F:\EACRips\Soundtrack (Music by Thomas Newman) - 2005 - Cinderella Man\13 - The Hope of the Irish.wav

Peak level 96.6 % Track quality 100.0 % Test CRC 23CB8207 Copy CRC 23CB8207 Accurately ripped (confidence 3) [9D7A99A6] Copy OK

Track 14

Filename F:\EACRips\Soundtrack (Music by Thomas Newman) - 2005 - Cinderella Man\14 - Hooverville Funeral.wav

Peak level 49.4 % Track quality 100.0 % Test CRC A1A269E2 Copy CRC A1A269E2 Accurately ripped (confidence 3) [DBE6E7B7] Copy OK

Track 15

Filename F:\EACRips\Soundtrack (Music by Thomas Newman) - 2005 - Cinderella Man\15 - Fight Day.wav

Pre-gap length 0:00:02.09

Peak level 53.9 % Track quality 99.9 % Test CRC 6C8F5686 Copy CRC 6C8F5686 Accurately ripped (confidence 3) [A7906B2C] Copy OK

Track 16

Filename F:\EACRips\Soundtrack (Music by Thomas Newman) - 2005 - Cinderella Man\16 - Good as Murder.wav

Peak level 55.2 % Track quality 100.0 % Test CRC 455AB7B8 Copy CRC 455AB7B8 Accurately ripped (confidence 3) [F2E4727F] Copy OK

Track 17

Filename F:\EACRips\Soundtrack (Music by Thomas Newman) - 2005 - Cinderella Man\17 - Roane's Pennsylvanians - We've Got to Put That Sun Back in the Sky.wav

Peak level 40.6 % Track quality 100.0 % Test CRC 24C60859 Copy CRC 24C60859 Accurately ripped (confidence 3) [63627649] Copy OK

Track 18

Filename F:\EACRips\Soundtrack (Music by Thomas Newman) - 2005 - Cinderella Man\18 - No Contest.wav

Pre-gap length 0:00:01.38

Peak level 24.6 % Track quality 99.8 % Test CRC 2FBE4632 Copy CRC 2FBE4632 Accurately ripped (confidence 3) [70EFE3B3] Copy OK

Track 19

Filename F:\EACRips\Soundtrack (Music by Thomas Newman) - 2005 - Cinderella Man\19 - Pugilism.wav

Peak level 98.8 % Track quality 99.8 % Test CRC C8F68009 Copy CRC C8F68009 Accurately ripped (confidence 3) [879A8E90] Copy OK

Track 20

Filename F:\EACRips\Soundtrack (Music by Thomas Newman) - 2005 - Cinderella Man\20 - Bulldog of Bergen.wav

Peak level 25.9 % Track quality 100.0 % Test CRC F59D1700 Copy CRC F59D1700 Accurately ripped (confidence 3) [3750E07A] Copy OK

Track 21

Filename F:\EACRips\Soundtrack (Music by Thomas Newman) - 2005 - Cinderella Man\21 - Big Right.wav

Peak level 98.8 % Track quality 99.9 % Test CRC 52D11392 Copy CRC 52D11392 Accurately ripped (confidence 3) [1F46E1AF] Copy OK

Track 22

Filename F:\EACRips\Soundtrack (Music by Thomas Newman) - 2005 - Cinderella Man\22 - 9, 4, 2 Even.wav

Peak level 55.4 % Track quality 100.0 % Test CRC 491D45ED Copy CRC 491D45ED Accurately ripped (confidence 3) [BED0713D] Copy OK

Track 23

Filename F:\EACRips\Soundtrack (Music by Thomas Newman) - 2005 - Cinderella Man\23 - Cinderella Man.wav

Peak level 98.8 % Track quality 100.0 % Test CRC 833DB4B8 Copy CRC 833DB4B8 Accurately ripped (confidence 3) [AE88DA22] Copy OK

Track 24

Filename F:\EACRips\Soundtrack (Music by Thomas Newman) - 2005 - Cinderella Man\24 - Turtle.wav

Peak level 98.8 % Track quality 100.0 % Test CRC 026AF057 Copy CRC 026AF057 Accurately ripped (confidence 3) [F4604F13] Copy OK

Track 25

Filename F:\EACRips\Soundtrack (Music by Thomas Newman) - 2005 - Cinderella Man\25 - Eddie Cantor with Phil Spitalny's Music - Cheer Up! Smile! Nertz!.wav

Pre-gap length 0:00:01.49

Peak level 54.3 % Track quality 100.0 % Test CRC E76C1D03 Copy CRC E76C1D03 Accurately ripped (confidence 3) [9C814DBA] Copy OK

All tracks accurately ripped

No errors occurred

End of status report
AUDIOCHECKER v2.0 beta (build 457) - by Dester - opdester@freemail.hu~~~~~~~~~~~~~~~~~~~~~~~~~~~~~~~~~~-=== DO NOT EDIT THIS FILE! ===-

Path: ...\Thomas Newman- Cinderella Man

01 -=- 01 - The Inside Out.flac -=- CDDA (100%)02 -=- 02 - Miff Mole and His Molers - Shim-Me-Sha-Wobble.flac -=- CDDA (100%)03 -=- 03 - Mae.flac -=- CDDA (100%)04 -=- 04 - Change of Fortune.flac -=- CDDA (100%)05 -=- 05 - Weehawken Ferry.flac -=- CDDA (100%)06 -=- 06 - Cold Meat Party.flac -=- CDDA (100%)07 -=- 07 - All Prayed Out.flac -=- CDDA (100%)08 -=- 08 - Bud Freeman and His Windy City Five - Tillie's Downtown Now.flac -=- CDDA (100%)09 -=- 09 - Three Bucks Twenty.flac -=- CDDA (100%)10 -=- 10 - Corn Griffin.flac -=- CDDA (100%)11 -=- 11 - Shoe Polish.flac -=- CDDA (100%)12 -=- 12 - Paul Giamatti - Londonderry Air.flac -=- CDDA (43%)13 -=- 13 - The Hope of the Irish.flac -=- CDDA (100%)14 -=- 14 - Hooverville Funeral.flac -=- CDDA (99%)15 -=- 15 - Fight Day.flac -=- CDDA (99%)16 -=- 16 - Good as Murder.flac -=- CDDA (100%)17 -=- 17 - Roane's Pennsylvanians - We've Got to Put That Sun Back in the Sky.flac -=- CDDA (100%)18 -=- 18 - No Contest.flac -=- CDDA (100%)19 -=- 19 - Pugilism.flac -=- CDDA (100%)20 -=- 20 - Bulldog of Bergen.flac -=- CDDA (100%)21 -=- 21 - Big Right.flac -=- CDDA (100%)22 -=- 22 - 9, 4, 2 Even.flac -=- CDDA (99%)23 -=- 23 - Cinderella Man.flac -=- CDDA (100%)24 -=- 24 - Turtle.flac -=- CDDA (100%)25 -=- 25 - Eddie Cantor with Phil Spitalny's Music - Cheer Up! Smile! Nertz!.flac -=- CDDA (100%)

Summary 97,60% CDDA

185912532


Трекер:  [ 23-Май-2017 11:00 ]

  

Скачать .torrent

Размер .torrent файла 19 KB


Размер: 212 MB
Хэш (hash) релиза: dd02a8b6991736eee3257bf29c723e76a60c9ede

Торренты, похожие на Cinderella Man Нокдаун скачать торрент

Форум Название Автор Размер S L Добавлен
Саундтреки к фильмам и мультфильмам (mp3) ·· (Score) Cinderella Man / Нокдаун (Thomas Newman) - 2005, MP3, 320 kbps AqvaGen 113916739109 MB 0 0 1292268104

22:21

13-Дек-10

Еще никто не оставлял запись к записи скачать торрент Cinderella Man Нокдаун . Будь первым!

!Обратная связь