Скачать через торрент музыку Tennant Lowe & Pet Shop Boys - Battleship Potemkin бесплатно без регистрации torrent

Если у вас наблюдаются проблемы со скриншотами, переходом по ссылками, скачиванием торрентов - проблемы в блокировщике рекламы AdBlock. #хорошегоДня!


Статистика раздачи
Размер:  474 MB   |    Зарегистрирован:  3 месяца 27 дней   |    .torrent скачан:  9 раз   |   
Раздают:  1  
   
Загрузка...
 
Автор Сообщение

Galfimbul

avatar Galfimbul


Броненосец «Потемкин» / Battleship Potemkin

Жанр: Score
Год выпуска диска: 2005
Производитель диска: Россия
Аудио кодек: FLAC
Тип рипа: tracks+.cue
Битрейт аудио: lossless
Продолжительность: 01:08:25
Трэклист:
1. "'Comrades!'" – 3:52
2. "Men and maggots" – 4:57
3. "Our daily bread" – 0:52
4. "Drama in the harbour" – 9:00
5. "Nyet" – 6:14
6. "To the shore" – 3:12
7. "Odessa" – 6:50
8. "No time for tears" – 4:32
9. "To the battleship" – 4:34
10. "After all (The Odessa Staircase)" – 7:23
11. "Stormy meetings" – 1:31
12. "Night falls" – 5:55
13. "Full steam ahead" – 1:50
14. "The squadron" – 4:24
15. "For freedom" – 3:17
Exact Audio Copy V0.99 prebeta 5 from 4. May 2009

EAC extraction logfile from 23. August 2009, 8:47

Tennant/Lowe / Battleship Potemkin

Used drive : Optiarc DVD RW AD-7173A Adapter: 0 ID: 1

Read mode : SecureUtilize accurate stream : YesDefeat audio cache : YesMake use of C2 pointers : No

Read offset correction : 48Overread into Lead-In and Lead-Out : NoFill up missing offset samples with silence : YesDelete leading and trailing silent blocks : NoNull samples used in CRC calculations : YesUsed interface : Native Win32 interface for Win NT & 2000Gap handling : Appended to previous track

Used output format : User Defined EncoderSelected bitrate : 768 kBit/sQuality : HighAdd ID3 tag : NoCommand line compressor : C:\Program Files\FLAC\flac.exeAdditional command line options : -8 -V -T "artist=%a" -T "title=%t" -T "album=%g" -T "date=%y" -T "tracknumber=%n" -T "genre=%m" %s

TOC of the extracted CD

Track | Start | Length | Start sector | End sector --------------------------------------------------------- 1 | 0:00.00 | 3:52.03 | 0 | 17402 2 | 3:52.03 | 4:57.02 | 17403 | 39679 3 | 8:49.05 | 0:52.37 | 39680 | 43616 4 | 9:41.42 | 9:00.45 | 43617 | 84161 5 | 18:42.12 | 6:14.25 | 84162 | 112236 6 | 24:56.37 | 3:12.03 | 112237 | 126639 7 | 28:08.40 | 6:50.56 | 126640 | 157445 8 | 34:59.21 | 4:32.04 | 157446 | 177849 9 | 39:31.25 | 4:34.19 | 177850 | 198418 10 | 44:05.44 | 7:23.22 | 198419 | 231665 11 | 51:28.66 | 1:31.38 | 231666 | 238528 12 | 53:00.29 | 5:55.21 | 238529 | 265174 13 | 58:55.50 | 1:50.02 | 265175 | 273426 14 | 60:45.52 | 4:24.01 | 273427 | 293227 15 | 65:09.53 | 3:19.27 | 293228 | 308179

Track 1

Filename C:\Downloads\Tennant,Lowe - Battleship Potemkin\01 - 'Comrades!'.wav

Pre-gap length 0:00:02.00

Peak level 99.9 % Track quality 100.0 % Test CRC 08132E51 Copy CRC 08132E51 Track not present in AccurateRip database Copy OK

Track 2

Filename C:\Downloads\Tennant,Lowe - Battleship Potemkin\02 - Men and maggots.wav

Peak level 99.9 % Track quality 100.0 % Test CRC FEB56A46 Copy CRC FEB56A46 Track not present in AccurateRip database Copy OK

Track 3

Filename C:\Downloads\Tennant,Lowe - Battleship Potemkin\03 - Our daily bread.wav

Peak level 84.9 % Track quality 100.0 % Test CRC C7E762A2 Copy CRC C7E762A2 Track not present in AccurateRip database Copy OK

Track 4

Filename C:\Downloads\Tennant,Lowe - Battleship Potemkin\04 - Drama in the harbour.wav

Peak level 99.9 % Track quality 99.9 % Test CRC C2F9AACF Copy CRC C2F9AACF Track not present in AccurateRip database Copy OK

Track 5

Filename C:\Downloads\Tennant,Lowe - Battleship Potemkin\05 - Nyet.wav

Peak level 100.0 % Track quality 100.0 % Test CRC 857F5D17 Copy CRC 857F5D17 Track not present in AccurateRip database Copy OK

Track 6

Filename C:\Downloads\Tennant,Lowe - Battleship Potemkin\06 - To the shore.wav

Peak level 99.9 % Track quality 100.0 % Test CRC A2941325 Copy CRC A2941325 Track not present in AccurateRip database Copy OK

Track 7

Filename C:\Downloads\Tennant,Lowe - Battleship Potemkin\07 - Odessa.wav

Peak level 99.9 % Track quality 99.9 % Test CRC 28CF6D8E Copy CRC 28CF6D8E Track not present in AccurateRip database Copy OK

Track 8

Filename C:\Downloads\Tennant,Lowe - Battleship Potemkin\08 - No time for tears.wav

Peak level 99.9 % Track quality 100.0 % Test CRC AC820A75 Copy CRC AC820A75 Track not present in AccurateRip database Copy OK

Track 9

Filename C:\Downloads\Tennant,Lowe - Battleship Potemkin\09 - To the battleship.wav

Peak level 92.0 % Track quality 99.9 % Test CRC 82519CA5 Copy CRC 82519CA5 Track not present in AccurateRip database Copy OK

Track 10

Filename C:\Downloads\Tennant,Lowe - Battleship Potemkin\10 - After all (The Odessa Staircase).wav

Peak level 99.8 % Track quality 99.9 % Test CRC 261B9228 Copy CRC 261B9228 Track not present in AccurateRip database Copy OK

Track 11

Filename C:\Downloads\Tennant,Lowe - Battleship Potemkin\11 - Stormy meetings.wav

Peak level 99.8 % Track quality 100.0 % Test CRC 018F3C1A Copy CRC 018F3C1A Track not present in AccurateRip database Copy OK

Track 12

Filename C:\Downloads\Tennant,Lowe - Battleship Potemkin\12 - Night falls.wav

Peak level 99.8 % Track quality 100.0 % Test CRC FE6D4938 Copy CRC FE6D4938 Track not present in AccurateRip database Copy OK

Track 13

Filename C:\Downloads\Tennant,Lowe - Battleship Potemkin\13 - Full steam ahead.wav

Peak level 99.9 % Track quality 100.0 % Test CRC 69EBC86B Copy CRC 69EBC86B Track not present in AccurateRip database Copy OK

Track 14

Filename C:\Downloads\Tennant,Lowe - Battleship Potemkin\14 - The squadron.wav

Peak level 99.9 % Track quality 99.9 % Test CRC 253FA4EF Copy CRC 253FA4EF Track not present in AccurateRip database Copy OK

Track 15

Filename C:\Downloads\Tennant,Lowe - Battleship Potemkin\15 - For freedom.wav

Peak level 99.9 % Track quality 100.0 % Test CRC 31FF91B8 Copy CRC 31FF91B8 Track not present in AccurateRip database Copy OK

None of the tracks are present in the AccurateRip database

No errors occurred

End of status report


Трекер:  [ 23-Май-2017 10:30 ]

  

Скачать .torrent

Размер .torrent файла 39 KB


Размер: 474 MB
Хэш (hash) релиза: c7cf3e1d0373c3133c24701f9a424e33d4d05cd8

Еще никто не оставлял запись к записи скачать торрент Tennant Lowe & Pet Shop Boys - Battleship Potemkin . Будь первым!

!Обратная связь