Скачать через торрент музыку Беглец The Fugitive бесплатно без регистрации torrent

Если у вас наблюдаются проблемы со скриншотами, переходом по ссылками, скачиванием торрентов - проблемы в блокировщике рекламы AdBlock. #хорошегоДня!


Статистика раздачи
Размер:  632 MB   |    Зарегистрирован:  3 месяца 27 дней   |    .torrent скачан:  8 раз   |   
Раздают:  1  
   
Загрузка...
 
Автор Сообщение

Galfimbul

avatar Galfimbul


The FugitiveJames Newton Howardfeat. Wayne Shorter
Жанр
: Score
Год выпуска диска: 2009
Производитель диска: США (La-La Land Records)
Аудио кодек: FLAC
Тип рипа: tracks+.cue
Битрейт аудио: lossless
Продолжительность (2 диска): 2:06:12
CD 1
01. Main Title 3:50
02. The Trial 4:31
03. The Bus 4:56
04. The Hand / The Hunt / The Tow Truck 4:04
05. The Hospital 4:06
06. Helicopter Chase 4:49
07. The Sewer 4:24
08. Kimble in the River 1:52
09. The Dream / Kimble Dyes His Hair 2:45
10. Copeland Bust 1:59
11. Kimble Calls His Lawyer / No Press 1:57
12. Kimble Returns to Hospital 3:06
13. The Montage / Cops Bust the Boys / Computer Search 6:50
14. Kimble Saves the Boy 2:54
15. Gerard Computes 1:49
16. The Courthouse / Stairway Chase 6:13
17. Cheap Hotel / Sykes' Apartment 4:37
Продолжительность: 1:04:41
CD 2
01. Kimble Calls Gerard 2:37
02. Memorial Hospital / It's Not Over Yet 3:03
03. See a Friend / Sykes Marks Kimble 2:12
04. This is My Stop / El Train Fight 4:02
05. The Hotel 2:42
06. Roof Fight Pt. 1 / Roof Fight Pt. 2 / Nichols Reappears 3:52
07. The Elevator / The Laundry Room 4:58
08. It's Over / End Credits 5:40
09. The Fugitive Theme 3:04
10. Kimble Dyes His Hair 4:23
11. No Press 4:57
12. No Press (Alternate) 0:45
13. No Press (No Sax) 1:31
14. Cops Bust the Boys (Alternate) 1:09
15. Computer Search (No Sax) 2:49
16. Roof Fight Pt. 1 (Less Percussion) 1:57
17. Roof Fight Pt. 1 (Less Orch Verb) 1:17
18. Helicopter Chase / The Sewer (Synth Demos) 7:44
19. Piano End Credits 2:47
Продолжительность: 1:01:31
Публиковались в оригинальном издании музыки к фильму — треки 1.1, 1.6, 1.7, 1.12, 1.16.2, 1.17.2, 2.4.2, 2.8.1, 2.9, 2.10, 2.11.
Включают музыку, не использованную в фильме — треки 1.6, 1.13.1, 1.15, 2.12, 2.14, 2.19.
<div class="sp-wrap">
<div class="sp-head folded">CD 1</div>
<div class="sp-body">

Exact Audio Copy V0.99 prebeta 5 from 4. May 2009

EAC extraction logfile from 4. December 2009, 12:20

James Newton Howard / The Fugitive [Expanded Archival Collection]

Used drive : TSSTcorpDVD-ROM TS-H352C Adapter: 1 ID: 1

Read mode : SecureUtilize accurate stream : YesDefeat audio cache : YesMake use of C2 pointers : No

Read offset correction : 6Overread into Lead-In and Lead-Out : NoFill up missing offset samples with silence : YesDelete leading and trailing silent blocks : NoNull samples used in CRC calculations : YesUsed interface : Installed external ASPI interfaceGap handling : Appended to previous track

Used output format : User Defined EncoderSelected bitrate : 320 kBit/sQuality : HighAdd ID3 tag : NoCommand line compressor : C:\Program Files\FLAC\flac.exeAdditional command line options : -V -8 -T "artist=%a" -T "title=%t" -T "album=%g" -T "date=%y" -T "tracknumber=%n" -T "genre=%m" %s

TOC of the extracted CD

Track | Start | Length | Start sector | End sector --------------------------------------------------------- 1 | 0:00.00 | 3:49.70 | 0 | 17244 2 | 3:49.70 | 4:30.64 | 17245 | 37558 3 | 8:20.59 | 4:56.29 | 37559 | 59787 4 | 13:17.13 | 4:03.62 | 59788 | 78074 5 | 17:21.00 | 4:05.59 | 78075 | 96508 6 | 21:26.59 | 4:49.04 | 96509 | 118187 7 | 26:15.63 | 4:24.27 | 118188 | 138014 8 | 30:40.15 | 1:51.69 | 138015 | 146408 9 | 32:32.09 | 2:45.10 | 146409 | 158793 10 | 35:17.19 | 1:58.41 | 158794 | 167684 11 | 37:15.60 | 1:56.57 | 167685 | 176441 12 | 39:12.42 | 3:05.41 | 176442 | 190357 13 | 42:18.08 | 6:49.55 | 190358 | 221087 14 | 49:07.63 | 2:54.05 | 221088 | 234142 15 | 52:01.68 | 1:49.04 | 234143 | 242321 16 | 53:50.72 | 6:13.30 | 242322 | 270326 17 | 60:04.27 | 4:37.14 | 270327 | 291115

Track 1

Filename N:\Music\The Fugitive\The Fugitive [1993, La La Land, FLAC] - James Newton Howard\Disc 1\01 - Main Title.wav

Pre-gap length 0:00:02.00

Peak level 82.4 % Track quality 100.0 % Test CRC 91E58877 Copy CRC 91E58877 Track not present in AccurateRip database Copy OK

Track 2

Filename N:\Music\The Fugitive\The Fugitive [1993, La La Land, FLAC] - James Newton Howard\Disc 1\02 - The Trial.wav

Pre-gap length 0:00:02.00

Peak level 98.0 % Track quality 100.0 % Test CRC BFDA4AD0 Copy CRC BFDA4AD0 Track not present in AccurateRip database Copy OK

Track 3

Filename N:\Music\The Fugitive\The Fugitive [1993, La La Land, FLAC] - James Newton Howard\Disc 1\03 - The Bus.wav

Pre-gap length 0:00:02.00

Peak level 99.2 % Track quality 100.0 % Test CRC 324BE4E8 Copy CRC 324BE4E8 Track not present in AccurateRip database Copy OK

Track 4

Filename N:\Music\The Fugitive\The Fugitive [1993, La La Land, FLAC] - James Newton Howard\Disc 1\04 - The Hand,The Hunt,The Tow Truck.wav

Pre-gap length 0:00:02.00

Peak level 78.4 % Track quality 100.0 % Test CRC AEBAC0C4 Copy CRC AEBAC0C4 Track not present in AccurateRip database Copy OK

Track 5

Filename N:\Music\The Fugitive\The Fugitive [1993, La La Land, FLAC] - James Newton Howard\Disc 1\05 - The Hospital.wav

Pre-gap length 0:00:02.00

Peak level 99.6 % Track quality 100.0 % Test CRC B79C43C2 Copy CRC B79C43C2 Track not present in AccurateRip database Copy OK

Track 6

Filename N:\Music\The Fugitive\The Fugitive [1993, La La Land, FLAC] - James Newton Howard\Disc 1\06 - Helicopter Chase.wav

Pre-gap length 0:00:02.00

Peak level 99.9 % Track quality 100.0 % Test CRC E6E7E993 Copy CRC E6E7E993 Track not present in AccurateRip database Copy OK

Track 7

Filename N:\Music\The Fugitive\The Fugitive [1993, La La Land, FLAC] - James Newton Howard\Disc 1\07 - The Sewer.wav

Pre-gap length 0:00:02.00

Peak level 99.9 % Track quality 100.0 % Test CRC 7DCFF570 Copy CRC 7DCFF570 Track not present in AccurateRip database Copy OK

Track 8

Filename N:\Music\The Fugitive\The Fugitive [1993, La La Land, FLAC] - James Newton Howard\Disc 1\08 - Kimble In the River.wav

Pre-gap length 0:00:02.00

Peak level 65.0 % Track quality 99.9 % Test CRC 240FF831 Copy CRC 240FF831 Track not present in AccurateRip database Copy OK

Track 9

Filename N:\Music\The Fugitive\The Fugitive [1993, La La Land, FLAC] - James Newton Howard\Disc 1\09 - The Dream,Kimble Dyes His Hair.wav

Pre-gap length 0:00:02.00

Peak level 86.5 % Track quality 100.0 % Test CRC 11963587 Copy CRC 11963587 Track not present in AccurateRip database Copy OK

Track 10

Filename N:\Music\The Fugitive\The Fugitive [1993, La La Land, FLAC] - James Newton Howard\Disc 1\10 - Copeland Bust.wav

Pre-gap length 0:00:02.00

Peak level 73.9 % Track quality 99.9 % Test CRC CC082A29 Copy CRC CC082A29 Track not present in AccurateRip database Copy OK

Track 11

Filename N:\Music\The Fugitive\The Fugitive [1993, La La Land, FLAC] - James Newton Howard\Disc 1\11 - Kimble Calls His Lawyer,No Press.wav

Pre-gap length 0:00:02.00

Peak level 62.9 % Track quality 100.0 % Test CRC B0224600 Copy CRC B0224600 Track not present in AccurateRip database Copy OK

Track 12

Filename N:\Music\The Fugitive\The Fugitive [1993, La La Land, FLAC] - James Newton Howard\Disc 1\12 - Kimble Returns to Hospital.wav

Pre-gap length 0:00:02.00

Peak level 99.8 % Track quality 100.0 % Test CRC 517502D1 Copy CRC 517502D1 Track not present in AccurateRip database Copy OK

Track 13

Filename N:\Music\The Fugitive\The Fugitive [1993, La La Land, FLAC] - James Newton Howard\Disc 1\13 - The Montage,Cops Bust the Boys,Computer Search.wav

Pre-gap length 0:00:02.00

Peak level 97.7 % Track quality 100.0 % Test CRC CAA30264 Copy CRC CAA30264 Track not present in AccurateRip database Copy OK

Track 14

Filename N:\Music\The Fugitive\The Fugitive [1993, La La Land, FLAC] - James Newton Howard\Disc 1\14 - Kimble Saves the Boy.wav

Pre-gap length 0:00:02.00

Peak level 64.4 % Track quality 100.0 % Test CRC 058ABA2C Copy CRC 058ABA2C Track not present in AccurateRip database Copy OK

Track 15

Filename N:\Music\The Fugitive\The Fugitive [1993, La La Land, FLAC] - James Newton Howard\Disc 1\15 - Gerard Computes.wav

Pre-gap length 0:00:02.00

Peak level 75.5 % Track quality 100.0 % Test CRC C8503ECB Copy CRC C8503ECB Track not present in AccurateRip database Copy OK

Track 16

Filename N:\Music\The Fugitive\The Fugitive [1993, La La Land, FLAC] - James Newton Howard\Disc 1\16 - The Courthouse,Stairway Chase.wav

Pre-gap length 0:00:02.00

Peak level 98.9 % Track quality 100.0 % Test CRC 658EC7F9 Copy CRC 658EC7F9 Track not present in AccurateRip database Copy OK

Track 17

Filename N:\Music\The Fugitive\The Fugitive [1993, La La Land, FLAC] - James Newton Howard\Disc 1\17 - Cheap Hotel,Sykes' Apartment.wav

Pre-gap length 0:00:02.00

Peak level 99.7 % Track quality 100.0 % Test CRC 2A75A2CC Copy CRC 2A75A2CC Track not present in AccurateRip database Copy OK

None of the tracks are present in the AccurateRip database

No errors occurred

End of status report
Exact Audio Copy V0.99 prebeta 5 from 4. May 2009

EAC extraction logfile from 4. December 2009, 13:07

James Newton Howard / The Fugitive [Expanded Archival Collection]

Used drive : TSSTcorpDVD-ROM TS-H352C Adapter: 1 ID: 1

Read mode : SecureUtilize accurate stream : YesDefeat audio cache : YesMake use of C2 pointers : No

Read offset correction : 6Overread into Lead-In and Lead-Out : NoFill up missing offset samples with silence : YesDelete leading and trailing silent blocks : NoNull samples used in CRC calculations : YesUsed interface : Installed external ASPI interfaceGap handling : Appended to previous track

Used output format : User Defined EncoderSelected bitrate : 320 kBit/sQuality : HighAdd ID3 tag : NoCommand line compressor : C:\Program Files\FLAC\flac.exeAdditional command line options : -V -8 -T "artist=%a" -T "title=%t" -T "album=%g" -T "date=%y" -T "tracknumber=%n" -T "genre=%m" %s

TOC of the extracted CD

Track | Start | Length | Start sector | End sector --------------------------------------------------------- 1 | 0:00.00 | 2:36.62 | 0 | 11761 2 | 2:36.62 | 3:03.00 | 11762 | 25486 3 | 5:39.62 | 2:12.04 | 25487 | 35390 4 | 7:51.66 | 4:02.27 | 35391 | 53567 5 | 11:54.18 | 2:41.68 | 53568 | 65710 6 | 14:36.11 | 3:52.33 | 65711 | 83143 7 | 18:28.44 | 4:58.20 | 83144 | 105513 8 | 23:26.64 | 5:40.13 | 105514 | 131026 9 | 29:07.02 | 3:04.32 | 131027 | 144858 10 | 32:11.34 | 4:22.64 | 144859 | 164572 11 | 36:34.23 | 4:57.05 | 164573 | 186852 12 | 41:31.28 | 0:45.28 | 186853 | 190255 13 | 42:16.56 | 1:31.06 | 190256 | 197086 14 | 43:47.62 | 1:08.63 | 197087 | 202249 15 | 44:56.50 | 2:48.70 | 202250 | 214919 16 | 47:45.45 | 1:56.66 | 214920 | 223685 17 | 49:42.36 | 1:16.52 | 223686 | 229437 18 | 50:59.13 | 7:44.34 | 229438 | 264271 19 | 58:43.47 | 2:47.21 | 264272 | 276817

Track 1

Filename N:\Music\The Fugitive\The Fugitive [1993, La La Land, FLAC] - James Newton Howard\Disc 2\01 - Kimble Calls Gerard.wav

Pre-gap length 0:00:02.00

Peak level 80.0 % Track quality 100.0 % Test CRC 383D0421 Copy CRC 383D0421 Track not present in AccurateRip database Copy OK

Track 2

Filename N:\Music\The Fugitive\The Fugitive [1993, La La Land, FLAC] - James Newton Howard\Disc 2\02 - Memorial Hospital,It's Not Over Yet.wav

Pre-gap length 0:00:02.00

Peak level 71.4 % Track quality 100.0 % Test CRC 4EA55C4D Copy CRC 4EA55C4D Track not present in AccurateRip database Copy OK

Track 3

Filename N:\Music\The Fugitive\The Fugitive [1993, La La Land, FLAC] - James Newton Howard\Disc 2\03 - See A Friend,Sykes Marks Kimble.wav

Pre-gap length 0:00:02.00

Peak level 93.1 % Track quality 100.0 % Test CRC 34EBDD8A Copy CRC 34EBDD8A Track not present in AccurateRip database Copy OK

Track 4

Filename N:\Music\The Fugitive\The Fugitive [1993, La La Land, FLAC] - James Newton Howard\Disc 2\04 - This Is My Stop,El Train Fight.wav

Pre-gap length 0:00:02.00

Peak level 99.4 % Track quality 100.0 % Test CRC 98EC978B Copy CRC 98EC978B Track not present in AccurateRip database Copy OK

Track 5

Filename N:\Music\The Fugitive\The Fugitive [1993, La La Land, FLAC] - James Newton Howard\Disc 2\05 - The Hotel.wav

Pre-gap length 0:00:02.00

Peak level 90.8 % Track quality 100.0 % Test CRC FA30265A Copy CRC FA30265A Track not present in AccurateRip database Copy OK

Track 6

Filename N:\Music\The Fugitive\The Fugitive [1993, La La Land, FLAC] - James Newton Howard\Disc 2\06 - Roof Fight Pt. 1,Roof Fight Pt. 2,Nichols Reappears.wav

Pre-gap length 0:00:02.00

Peak level 99.3 % Track quality 99.9 % Test CRC 5806722C Copy CRC 5806722C Track not present in AccurateRip database Copy OK

Track 7

Filename N:\Music\The Fugitive\The Fugitive [1993, La La Land, FLAC] - James Newton Howard\Disc 2\07 - The Elevator,The Laundry Room.wav

Pre-gap length 0:00:02.00

Peak level 95.1 % Track quality 100.0 % Test CRC 4DE2AF1B Copy CRC 4DE2AF1B Track not present in AccurateRip database Copy OK

Track 8

Filename N:\Music\The Fugitive\The Fugitive [1993, La La Land, FLAC] - James Newton Howard\Disc 2\08 - It' Over,End Credits.wav

Pre-gap length 0:00:02.00

Peak level 95.8 % Track quality 100.0 % Test CRC 17DC4F5B Copy CRC 17DC4F5B Track not present in AccurateRip database Copy OK

Track 9

Filename N:\Music\The Fugitive\The Fugitive [1993, La La Land, FLAC] - James Newton Howard\Disc 2\09 - The Fugitive Theme.wav

Pre-gap length 0:00:04.00

Peak level 57.9 % Track quality 100.0 % Test CRC 224F9596 Copy CRC 224F9596 Track not present in AccurateRip database Copy OK

Track 10

Filename N:\Music\The Fugitive\The Fugitive [1993, La La Land, FLAC] - James Newton Howard\Disc 2\10 - Kimble Dyes His Hair.wav

Pre-gap length 0:00:02.00

Peak level 86.6 % Track quality 100.0 % Test CRC 7BF99515 Copy CRC 7BF99515 Track not present in AccurateRip database Copy OK

Track 11

Filename N:\Music\The Fugitive\The Fugitive [1993, La La Land, FLAC] - James Newton Howard\Disc 2\11 - No Press.wav

Pre-gap length 0:00:02.00

Peak level 99.1 % Track quality 100.0 % Test CRC 399F3B9C Copy CRC 399F3B9C Track not present in AccurateRip database Copy OK

Track 12

Filename N:\Music\The Fugitive\The Fugitive [1993, La La Land, FLAC] - James Newton Howard\Disc 2\12 - No Press (Alternate).wav

Pre-gap length 0:00:04.00

Peak level 42.4 % Track quality 100.0 % Test CRC 4484DB26 Copy CRC 4484DB26 Track not present in AccurateRip database Copy OK

Track 13

Filename N:\Music\The Fugitive\The Fugitive [1993, La La Land, FLAC] - James Newton Howard\Disc 2\13 - No Press (No Sax).wav

Pre-gap length 0:00:02.00

Peak level 56.8 % Track quality 100.0 % Test CRC 1EDE375D Copy CRC 1EDE375D Track not present in AccurateRip database Copy OK

Track 14

Filename N:\Music\The Fugitive\The Fugitive [1993, La La Land, FLAC] - James Newton Howard\Disc 2\14 - Cops Bust The Boys (Alternate).wav

Pre-gap length 0:00:02.00

Peak level 87.0 % Track quality 100.0 % Test CRC 0A2A4F33 Copy CRC 0A2A4F33 Track not present in AccurateRip database Copy OK

Track 15

Filename N:\Music\The Fugitive\The Fugitive [1993, La La Land, FLAC] - James Newton Howard\Disc 2\15 - Computer Search (No Sax).wav

Pre-gap length 0:00:02.00

Peak level 83.8 % Track quality 100.0 % Test CRC DB81321F Copy CRC DB81321F Track not present in AccurateRip database Copy OK

Track 16

Filename N:\Music\The Fugitive\The Fugitive [1993, La La Land, FLAC] - James Newton Howard\Disc 2\16 - Roof Fight Pt. 1 (Less Percussion).wav

Pre-gap length 0:00:02.00

Peak level 98.0 % Track quality 99.9 % Test CRC DB8ED1E8 Copy CRC DB8ED1E8 Track not present in AccurateRip database Copy OK

Track 17

Filename N:\Music\The Fugitive\The Fugitive [1993, La La Land, FLAC] - James Newton Howard\Disc 2\17 - Roof Fight Pt. 1 (Less Orch Verb).wav

Pre-gap length 0:00:02.00

Peak level 96.5 % Track quality 99.8 % Test CRC A3F12B42 Copy CRC A3F12B42 Track not present in AccurateRip database Copy OK

Track 18

Filename N:\Music\The Fugitive\The Fugitive [1993, La La Land, FLAC] - James Newton Howard\Disc 2\18 - Helicopter Chase,The Sewer (Synth Demos).wav

Pre-gap length 0:00:04.00

Peak level 72.8 % Track quality 100.0 % Test CRC D9136DED Copy CRC D9136DED Track not present in AccurateRip database Copy OK

Track 19

Filename N:\Music\The Fugitive\The Fugitive [1993, La La Land, FLAC] - James Newton Howard\Disc 2\19 - Piano End Credits.wav

Pre-gap length 0:00:02.00

Peak level 40.0 % Track quality 100.0 % Test CRC 4F3E23AB Copy CRC 4F3E23AB Track not present in AccurateRip database Copy OK

None of the tracks are present in the AccurateRip database

No errors occurred

End of status report
</div>
</div>
<div class="sp-wrap">
<div class="sp-head folded">CD 1</div>
<div class="sp-body">

REM ACCURATERIPID 0028585f-01f6c4e3-e70f2911REM GENRE "Soundtrack"REM DATE 2009REM DISCID E70F2911REM COMMENT "ExactAudioCopy v0.99pb5"PERFORMER "James Newton Howard"TITLE "The Fugitive"FILE "101 - Main Title.flac" WAVE TRACK 01 AUDIO FLAGS DCP PERFORMER "James Newton Howard" TITLE "Main Title" INDEX 01 00:00:00 TRACK 02 AUDIO FLAGS DCP PERFORMER "James Newton Howard" TITLE "The Trial" INDEX 00 03:47:70FILE "102 - The Trial.flac" WAVE INDEX 01 00:00:00 TRACK 03 AUDIO FLAGS DCP PERFORMER "James Newton Howard" TITLE "The Bus" INDEX 00 04:28:64FILE "103 - The Bus.flac" WAVE INDEX 01 00:00:00 TRACK 04 AUDIO FLAGS DCP PERFORMER "James Newton Howard" TITLE "The Hand / The Hunt / The Tow Truck" INDEX 00 04:54:29FILE "104 - The Hand - The Hunt - The Tow Truck.flac" WAVE INDEX 01 00:00:00 TRACK 05 AUDIO FLAGS DCP PERFORMER "James Newton Howard" TITLE "The Hospital" INDEX 00 04:01:62FILE "105 - The Hospital.flac" WAVE INDEX 01 00:00:00 TRACK 06 AUDIO FLAGS DCP PERFORMER "James Newton Howard" TITLE "Helicopter Chase" INDEX 00 04:03:59FILE "106 - Helicopter Chase.flac" WAVE INDEX 01 00:00:00 TRACK 07 AUDIO FLAGS DCP PERFORMER "James Newton Howard" TITLE "The Sewer" INDEX 00 04:47:04FILE "107 - The Sewer.flac" WAVE INDEX 01 00:00:00 TRACK 08 AUDIO FLAGS DCP PERFORMER "James Newton Howard" TITLE "Kimble in the River" INDEX 00 04:22:27FILE "108 - Kimble in the River.flac" WAVE INDEX 01 00:00:00 TRACK 09 AUDIO FLAGS DCP PERFORMER "James Newton Howard" TITLE "The Dream / Kimble Dyes His Hair" INDEX 00 01:49:69FILE "109 - The Dream - Kimble Dyes His Hair.flac" WAVE INDEX 01 00:00:00 TRACK 10 AUDIO FLAGS DCP PERFORMER "James Newton Howard" TITLE "Copeland Bust" INDEX 00 02:43:10FILE "110 - Copeland Bust.flac" WAVE INDEX 01 00:00:00 TRACK 11 AUDIO FLAGS DCP PERFORMER "James Newton Howard" TITLE "Kimble Calls His Lawyer / No Press" INDEX 00 01:56:41FILE "111 - Kimble Calls His Lawyer - No Press.flac" WAVE INDEX 01 00:00:00 TRACK 12 AUDIO FLAGS DCP PERFORMER "James Newton Howard" TITLE "Kimble Returns to Hospital" INDEX 00 01:54:57FILE "112 - Kimble Returns to Hospital.flac" WAVE INDEX 01 00:00:00 TRACK 13 AUDIO FLAGS DCP PERFORMER "James Newton Howard" TITLE "The Montage / Cops Bust the Boys / Computer Search" INDEX 00 03:03:41FILE "113 - The Montage - Cops Bust the Boys - Computer Search.flac" WAVE INDEX 01 00:00:00 TRACK 14 AUDIO FLAGS DCP PERFORMER "James Newton Howard" TITLE "Kimble Saves the Boy" INDEX 00 06:47:55FILE "114 - Kimble Saves the Boy.flac" WAVE INDEX 01 00:00:00 TRACK 15 AUDIO FLAGS DCP PERFORMER "James Newton Howard" TITLE "Gerard Computes" INDEX 00 02:52:05FILE "115 - Gerard Computes.flac" WAVE INDEX 01 00:00:00 TRACK 16 AUDIO FLAGS DCP PERFORMER "James Newton Howard" TITLE "The Courthouse / Stairway Chase" INDEX 00 01:47:04FILE "116 - The Courthouse - Stairway Chase.flac" WAVE INDEX 01 00:00:00 TRACK 17 AUDIO FLAGS DCP PERFORMER "James Newton Howard" TITLE "Cheap Hotel / Sykes' Apartment" INDEX 00 06:11:30FILE "117 - Cheap Hotel - Sykes' Apartment.flac" WAVE INDEX 01 00:00:00
REM ACCURATERIPID 002ad358-02563976-2a0e6a13REM GENRE "Soundtrack"REM DATE 2009REM DISCID 2A0E6A13REM COMMENT "ExactAudioCopy v0.99pb5"PERFORMER "James Newton Howard"TITLE "The Fugitive"FILE "201 - Kimble Calls Gerard.flac" WAVE TRACK 01 AUDIO FLAGS DCP PERFORMER "James Newton Howard" TITLE "Kimble Calls Gerard" INDEX 01 00:00:00 TRACK 02 AUDIO FLAGS DCP PERFORMER "James Newton Howard" TITLE "Memorial Hospital / It's Not Over Yet" INDEX 00 02:34:62FILE "202 - Memorial Hospital - It's Not Over Yet.flac" WAVE INDEX 01 00:00:00 TRACK 03 AUDIO FLAGS DCP PERFORMER "James Newton Howard" TITLE "See a Friend / Sykes Marks Kimble" INDEX 00 03:01:00FILE "203 - See a Friend - Sykes Marks Kimble.flac" WAVE INDEX 01 00:00:00 TRACK 04 AUDIO FLAGS DCP PERFORMER "James Newton Howard" TITLE "This is My Stop / El Train Fight" INDEX 00 02:10:04FILE "204 - This is My Stop - El Train Fight.flac" WAVE INDEX 01 00:00:00 TRACK 05 AUDIO FLAGS DCP PERFORMER "James Newton Howard" TITLE "The Hotel" INDEX 00 04:00:27FILE "205 - The Hotel.flac" WAVE INDEX 01 00:00:00 TRACK 06 AUDIO FLAGS DCP PERFORMER "James Newton Howard" TITLE "Roof Fight Pt. 1 / Roof Fight Pt. 2 / Nichols Reappears" INDEX 00 02:39:68FILE "206 - Roof Fight Pt. 1 - Roof Fight Pt. 2 - Nichols Reappears.flac" WAVE INDEX 01 00:00:00 TRACK 07 AUDIO FLAGS DCP PERFORMER "James Newton Howard" TITLE "The Elevator / The Laundry Room" INDEX 00 03:50:33FILE "207 - The Elevator - The Laundry Room.flac" WAVE INDEX 01 00:00:00 TRACK 08 AUDIO FLAGS DCP PERFORMER "James Newton Howard" TITLE "It's Over / End Credits" INDEX 00 04:56:20FILE "208 - It's Over - End Credits.flac" WAVE INDEX 01 00:00:00 TRACK 09 AUDIO FLAGS DCP PERFORMER "James Newton Howard" TITLE "The Fugitive Theme" INDEX 00 05:36:13FILE "209 - The Fugitive Theme.flac" WAVE INDEX 01 00:00:00 TRACK 10 AUDIO FLAGS DCP PERFORMER "James Newton Howard" TITLE "Kimble Dyes His Hair" INDEX 00 03:02:32FILE "210 - Kimble Dyes His Hair.flac" WAVE INDEX 01 00:00:00 TRACK 11 AUDIO FLAGS DCP PERFORMER "James Newton Howard" TITLE "No Press" INDEX 00 04:20:64FILE "211 - No Press.flac" WAVE INDEX 01 00:00:00 TRACK 12 AUDIO FLAGS DCP PERFORMER "James Newton Howard" TITLE "No Press (Alternate)" INDEX 00 04:53:05FILE "212 - No Press - Alternate.flac" WAVE INDEX 01 00:00:00 TRACK 13 AUDIO FLAGS DCP PERFORMER "James Newton Howard" TITLE "No Press (No Sax)" INDEX 00 00:43:28FILE "213 - No Press - No Sax.flac" WAVE INDEX 01 00:00:00 TRACK 14 AUDIO FLAGS DCP PERFORMER "James Newton Howard" TITLE "Cops Bust the Boys (Alternate)" INDEX 00 01:29:06FILE "214 - Cops Bust the Boys - Alternate.flac" WAVE INDEX 01 00:00:00 TRACK 15 AUDIO FLAGS DCP PERFORMER "James Newton Howard" TITLE "Computer Search (No Sax)" INDEX 00 01:06:63FILE "215 - Computer Search - No Sax.flac" WAVE INDEX 01 00:00:00 TRACK 16 AUDIO FLAGS DCP PERFORMER "James Newton Howard" TITLE "Roof Fight Pt. 1 (Less Percussion)" INDEX 00 02:46:70FILE "216 - Roof Fight Pt. 1 - Less Percussion.flac" WAVE INDEX 01 00:00:00 TRACK 17 AUDIO FLAGS DCP PERFORMER "James Newton Howard" TITLE "Roof Fight Pt. 1 (Less Orch Verb)" INDEX 00 01:54:66FILE "217 - Roof Fight Pt. 1 - Less Orch Verb.flac" WAVE INDEX 01 00:00:00 TRACK 18 AUDIO FLAGS DCP PERFORMER "James Newton Howard" TITLE "Helicopter Chase / The Sewer (Synth Demos)" INDEX 00 01:12:52FILE "218 - Helicopter Chase - The Sewer - Synth Demos.flac" WAVE INDEX 01 00:00:00 TRACK 19 AUDIO FLAGS DCP PERFORMER "James Newton Howard" TITLE "Piano End Credits" INDEX 00 07:42:34FILE "219 - Piano End Credits.flac" WAVE INDEX 01 00:00:00
</div>
</div>

Трекер:  [ 23-Май-2017 10:30 ]

  

Скачать .torrent

Размер .torrent файла 53 KB


Размер: 632 MB
Хэш (hash) релиза: f65db73e6f5cc48460510959b3d7a5f67dee7849

Торренты, похожие на Беглец The Fugitive скачать торрент

Форум Название Автор Размер S L Добавлен
Саундтреки к фильмам и мультфильмам (mp3) ·· (Score) Беглец / The Fugitive — James Newton Howard — 1993, MP3 (tracks), 320 kbps Galfimbul 10301527398 MB 0 0 1496137060

12:37

30-Май-17

Еще никто не оставлял запись к записи скачать торрент Беглец The Fugitive . Будь первым!

!Обратная связь