Скачать через торрент музыку Александр Зацепин - 31 июня - 2003, FLAC бесплатно без регистрации torrent

Если у вас наблюдаются проблемы со скриншотами, переходом по ссылками, скачиванием торрентов - проблемы в блокировщике рекламы AdBlock. #хорошегоДня!


Статистика раздачи
Размер:  362 MB   |    Зарегистрирован:  3 месяца 27 дней   |    .torrent скачан:  13 раз   |   
Раздают:  1  
   
Загрузка...
 
Автор Сообщение

Galfimbul

avatar Galfimbul


Александр Зацепин - 31 июня

Жанр: Soundtrack
Год выпуска диска: 2003
Производитель диска: Россия
Аудио кодек: FLAC
Тип рипа: tracks+.cue
Битрейт аудио: lossless
Продолжительность: 56min
Трэклист:
1. Песня леди Джейн
2. Драконография
3. Чарльстон
4. Золота слышен звон
5. Звездный мост
6. Хэппи-энд
7. Любовь с первого взгляда
8. Дракон по имени кошмар
9. Я все равно на ней женюсь
10. Мир без любимого
11. Буду я королевой
12. Любовь нас выбирает
13. Ищу тебя
14. Он пришел - этот добрый день
15. Лунный день (Бонус-трек)
16. Что было однажды (Бонус-трек)
Exact Audio Copy V0.99 prebeta 4 from 23. January 2008

Отчёт EAC об извлечении, выполненном 18. апреля 2009, 22:38

Александр Зацепин / 31 июня

Дисковод: TEAC DV-W516E Adapter: 1 ID: 0

Режим чтения : ДостоверностьИспользование точного потока : ДаОтключение кэша аудио : ДаИспользование указателей C2 : Нет

Коррекция смещения при чтении : 102Способность читать области Lead-in и Lead-out : НетЗаполнение пропущенных сэмплов тишиной : ДаУдаление блоков с тишиной в начале и конце : НетПри вычислениях CRC использовались нулевые сэмплы : ДаИнтерфейс : Установленный внешний ASPI-интерфейсОбработка зазоров : Не обнаружено, добавлено к предыдущему треку

Выходной формат : Пользовательский кодировщикВыбранный битрейт : 768 kBit/sКачество : ВысокийДобавление ID3-тэга : НетУтилита сжатия : C:\Program Files\Exact Audio Copy\FLAC\FLAC.EXEДополнительные параметры : -V -8 -T "artist=%a" -T "title=%t" -T "album=%g" -T "date=%y" -T "tracknumber=%n" -T "genre=%m" %s

TOC извлечённого CD

Трек | Старт | Длительность | Начальный сектор | Конечный сектор --------------------------------------------------------------------- 1 | 0:00.00 | 1:11.58 | 0 | 5382 2 | 1:11.58 | 3:37.37 | 5383 | 21694 3 | 4:49.20 | 4:22.14 | 21695 | 41358 4 | 9:11.34 | 3:38.32 | 41359 | 57740 5 | 12:49.66 | 3:57.66 | 57741 | 75581 6 | 16:47.57 | 2:37.43 | 75582 | 87399 7 | 19:25.25 | 3:25.67 | 87400 | 102841 8 | 22:51.17 | 1:55.08 | 102842 | 111474 9 | 24:46.25 | 2:36.21 | 111475 | 123195 10 | 27:22.46 | 4:11.09 | 123196 | 142029 11 | 31:33.55 | 3:07.73 | 142030 | 156127 12 | 34:41.53 | 4:41.70 | 156128 | 177272 13 | 39:23.48 | 5:15.29 | 177273 | 200926 14 | 44:39.02 | 4:34.36 | 200927 | 221512 15 | 49:13.38 | 3:50.45 | 221513 | 238807 16 | 53:04.08 | 3:36.24 | 238808 | 255031

Трек 1

Имя файла C:\Documents and Settings\Моя музыка\Новая папка (2)\[01]Песня леди Джейн-Александр Зацепин.wav

Пиковый уровень 100.0 % Качество трека 100.0 % CRC копии 0D8AC088 Копирование... OK

Трек 2

Имя файла C:\Documents and Settings\Моя музыка\Новая папка (2)\[02]Драконография-Александр Зацепин.wav

Пиковый уровень 80.0 % Качество трека 99.9 % CRC копии C4592708 Копирование... OK

Трек 3

Имя файла C:\Documents and Settings\Моя музыка\Новая папка (2)\[03]Чарльстон-Александр Зацепин.wav

Пиковый уровень 92.6 % Качество трека 100.0 % CRC копии A4FA81C8 Копирование... OK

Трек 4

Имя файла C:\Documents and Settings\Моя музыка\Новая папка (2)\[04]Золота слышен звон-Александр Зацепин.wav

Пиковый уровень 81.2 % Качество трека 100.0 % CRC копии 20D3CDD8 Копирование... OK

Трек 5

Имя файла C:\Documents and Settings\Моя музыка\Новая папка (2)\[05]Звездный мост-Александр Зацепин.wav

Пиковый уровень 54.9 % Качество трека 100.0 % CRC копии B3A5A537 Копирование... OK

Трек 6

Имя файла C:\Documents and Settings\Моя музыка\Новая папка (2)\[06]Хэппи-энд-Александр Зацепин.wav

Пиковый уровень 81.2 % Качество трека 100.0 % CRC копии 9B93F245 Копирование... OK

Трек 7

Имя файла C:\Documents and Settings\Моя музыка\Новая папка (2)\[07]Любовь с первого взгляда-Александр Зацепин.wav

Пиковый уровень 92.4 % Качество трека 99.9 % CRC копии 93E17054 Копирование... OK

Трек 8

Имя файла C:\Documents and Settings\Моя музыка\Новая папка (2)\[08]Дракон по имени Кошмар-Александр Зацепин.wav

Пиковый уровень 91.6 % Качество трека 100.0 % CRC копии F9B83ACA Копирование... OK

Трек 9

Имя файла C:\Documents and Settings\Моя музыка\Новая папка (2)\[09]Я все равно на ней женюсь-Александр Зацепин.wav

Пиковый уровень 73.1 % Качество трека 100.0 % CRC копии CEE7BAA6 Копирование... OK

Трек 10

Имя файла C:\Documents and Settings\Моя музыка\Новая папка (2)\[10]Мир без любимого-Александр Зацепин.wav

Пиковый уровень 79.0 % Качество трека 100.0 % CRC копии CD613EFC Копирование... OK

Трек 11

Имя файла C:\Documents and Settings\Моя музыка\Новая папка (2)\[11]Буду я королевой-Александр Зацепин.wav

Пиковый уровень 79.0 % Качество трека 99.9 % CRC копии ADCCAEBE Копирование... OK

Трек 12

Имя файла C:\Documents and Settings\Моя музыка\Новая папка (2)\[12]Любовь нас выбирает-Александр Зацепин.wav

Пиковый уровень 98.8 % Качество трека 99.9 % CRC копии 2ADEF898 Копирование... OK

Трек 13

Имя файла C:\Documents and Settings\Моя музыка\Новая папка (2)\[13]Ищу тебя-Александр Зацепин.wav

Пиковый уровень 94.0 % Качество трека 100.0 % CRC копии F5BB3DBB Копирование... OK

Трек 14

Имя файла C:\Documents and Settings\Моя музыка\Новая папка (2)\[14]Он пришел - этот добрый день-Александр Зацепин.wav

Пиковый уровень 72.4 % Качество трека 100.0 % CRC копии D231728C Копирование... OK

Трек 15

Имя файла C:\Documents and Settings\Моя музыка\Новая папка (2)\[15]Лунный день (бонус)-Александр Зацепин.wav

Пиковый уровень 83.4 % Качество трека 100.0 % CRC копии CBD05886 Копирование... OK

Трек 16

Имя файла C:\Documents and Settings\Моя музыка\Новая папка (2)\[16]Что было однажды (бонус)-Александр Зацепин.wav

Пиковый уровень 93.3 % Качество трека 100.0 % CRC копии 94740945 Копирование... OK

Ошибок не произошло

Конец отчёта


Трекер:  [ 23-Май-2017 10:00 ]

  

Скачать .torrent

Размер .torrent файла 30 KB


Размер: 362 MB
Хэш (hash) релиза: 45fa537b5da2cf2369f8305af03e2fdff7c87147

Еще никто не оставлял запись к записи скачать торрент Александр Зацепин - 31 июня - 2003, FLAC . Будь первым!

!Обратная связь