Скачать через торрент музыку Около полуночи Полночный джаз бесплатно без регистрации torrent

Если у вас наблюдаются проблемы со скриншотами, переходом по ссылками, скачиванием торрентов - проблемы в блокировщике рекламы AdBlock. #хорошегоДня!


Статистика раздачи
Размер:  252 MB   |    Зарегистрирован:  3 месяца 28 дней   |    .torrent скачан:  12 раз   |   
Раздают:  1  
   
Загрузка...
 
Автор Сообщение

Galfimbul

avatar Galfimbul


'Round MidnightПри участии:
Dexter Gordon, Herbie Hancock, Chet Baker, Ron Carter, Bobby McFerrin, Wayne Shorter и др.
Жанр
: Score
Год выпуска диска: 1986
Производитель диска: США (Columbia)
Аудио кодек: FLAC
Тип рипа: tracks+.cue
Битрейт аудио: lossless
Продолжительность: 0:51:21

Фильм «Полночный джаз» — драма Бертрана Тавернье, который снял собственного кумира в музыке, Декстера Гордона, в роли стареющего джазового саксофониста, основав судьбу этого персонажа на биографиях легендарных музыкантов первой половины столетия — Бада Пауэлла и Лестера Янга. В 1987 году Херби Хэнкок получил «Оскар» за лучшую музыку к этому фильму, а никогда прежде не игравший больших ролей Гордон был номинирован Академией как лучший актёр (выиграл в тот раз Пол Ньюман).

Вторая часть саундтрека вышла как номерной альбом Декстера Гордона — The Other Side of Round Midnight.
01. 'Round Midnight (Bernie Hanighen, Cootie Williams, Thelonious Monk) 5:37
02. Body and Soul (Edward Heyman, Frank Eyton, Johnny Green, Robert Sour) 5:55
03. Bérangére's Nightmare (Herbie Hancock) 3:06
04. Fair Weather (Kenny Dorham) 6:05
05. Una Noche con Francis (Bud Powell) 4:23
06. The Peacocks (Jimmy Rowles) 7:17
07. How Long has This been Going On? (George Gershwin, Ira Gershwin) 3:14
08. Rhythm-a-Ning (Thelonious Monk) 4:11
09. Still Time (Herbie Hancock) 3:52
10. Minuit aux Champs-Elysées (Henri Renaud) 3:25
11. Chan's Song (Never Said) (Stevie Wonder, Herbie Hancock) 4:16
Herbie Hancock (piano)##1–7, 9–11;
Ron Carter
(bass), Tony Williams (drums)##1, 8, 11;
Bobby McFerrin
(vocal)##1, 11;
Dexter Gordon
(tenor sax)##2, 5, 7–9;
Pierre Michelot
(bass), Billy Higgins (drums)##2–7, 9;
John McLaughlin
(guitar)##2, 3;
Chet Baker
(vocal & trumpet)#4;
Bobby Hutcherson
(vibes)##5, 10;
Wayne Shorter
(tenor sax)#5; (soprano sax)#6;
Lonette McKee
(vocal)#7;
Freddie Hubbard
(trumpet), Cedar Walton (piano)#8
Produced by Herbie Hancock.
Recorded & mixed by William Flageollet. Mastered by Wally Traugott. Music coordination by Tony Meilandt.
Cover art by Steve Chorney.
Recorded live at Studio Eclair, Epinay Sur Seine, France. Assisted by Natasha and Jean-Loup. Additional recording at Studio Davout and Studio Philippe Sarde, Paris.
Mastered at Capitol Recording Studios.
Exact Audio Copy V0.99 prebeta 3 from 28. July 2007

EAC extraction logfile from 31. December 2008, 10:29

Various / Round Midnight

Used drive : PIONEER DVD-RW DVR-215 Adapter: 0 ID: 1

Read mode : SecureUtilize accurate stream : YesDefeat audio cache : YesMake use of C2 pointers : No

Read offset correction : 48Overread into Lead-In and Lead-Out : NoFill up missing offset samples with silence : YesDelete leading and trailing silent blocks : NoNull samples used in CRC calculations : YesUsed interface : Native Win32 interface for Win NT & 2000Gap handling : Appended to previous track

Used output format : User Defined EncoderSelected bitrate : 320 kBit/sQuality : HighAdd ID3 tag : NoCommand line compressor : P:\Media\flac-1.2.1-win\bin\flac.exeAdditional command line options : -V -8 -T "artist=%a" -T "title=%t" -T "album=%g" -T "date=%y" -T "tracknumber=%n" -T

"genre=%m" %s

TOC of the extracted CD

Track | Start | Length | Start sector | End sector --------------------------------------------------------- 1 | 0:00.00 | 5:36.62 | 0 | 25261 2 | 5:36.62 | 5:54.73 | 25262 | 51884 3 | 11:31.60 | 3:06.02 | 51885 | 65836 4 | 14:37.62 | 6:05.18 | 65837 | 93229 5 | 20:43.05 | 4:23.15 | 93230 | 112969 6 | 25:06.20 | 7:16.55 | 112970 | 145724 7 | 32:23.00 | 3:13.70 | 145725 | 160269 8 | 35:36.70 | 4:11.17 | 160270 | 179111 9 | 39:48.12 | 3:51.45 | 179112 | 196481 10 | 43:39.57 | 3:25.18 | 196482 | 211874 11 | 47:05.00 | 4:16.12 | 211875 | 231086

Track 1

Filename Various - Round Midnight\01 - Round Midnight.wav

Pre-gap length 0:00:02.00

Peak level 89.5 % Track quality 100.0 % Test CRC 90179048 Copy CRC 90179048 Accurately ripped (confidence 6) [51E39D26] Copy OK

Track 2

Filename Various - Round Midnight\02 - Body and Soul.wav

Peak level 78.7 % Track quality 99.9 % Test CRC EEA2AEDF Copy CRC EEA2AEDF Accurately ripped (confidence 7) [34A82790] Copy OK

Track 3

Filename Various - Round Midnight\03 - Berangere's Nightmare.wav

Peak level 89.5 % Track quality 100.0 % Test CRC 71414CF0 Copy CRC 71414CF0 Accurately ripped (confidence 7) [9AFB54BA] Copy OK

Track 4

Filename Various - Round Midnight\04 - Fair Weather.wav

Peak level 60.2 % Track quality 99.9 % Test CRC 651A6E75 Copy CRC 651A6E75 Accurately ripped (confidence 7) [029F5EDB] Copy OK

Track 5

Filename Various - Round Midnight\05 - Una Noche con Francis.wav

Peak level 85.9 % Track quality 100.0 % Test CRC C65F65BC Copy CRC C65F65BC Accurately ripped (confidence 7) [F9A496FE] Copy OK

Track 6

Filename Various - Round Midnight\06 - The Peacocks.wav

Peak level 89.5 % Track quality 100.0 % Test CRC E2C2D3DB Copy CRC E2C2D3DB Accurately ripped (confidence 7) [332B0E71] Copy OK

Track 7

Filename Various - Round Midnight\07 - How Long Has This Been Going On .wav

Peak level 72.5 % Track quality 99.9 % Test CRC 828EFB48 Copy CRC 828EFB48 Accurately ripped (confidence 7) [AD2E24EE] Copy OK

Track 8

Filename Various - Round Midnight\08 - Rhythm-A-Ning.wav

Peak level 89.5 % Track quality 100.0 % Test CRC 8746CEC0 Copy CRC 8746CEC0 Accurately ripped (confidence 7) [49950570] Copy OK

Track 9

Filename Various - Round Midnight\09 - Still Time.wav

Peak level 48.7 % Track quality 100.0 % Test CRC ECD66DA6 Copy CRC ECD66DA6 Accurately ripped (confidence 7) [76FCC763] Copy OK

Track 10

Filename Various - Round Midnight\10 - Minuit aux Champs-Elysées.wav

Peak level 44.5 % Track quality 100.0 % Test CRC 06CC4E58 Copy CRC 06CC4E58 Accurately ripped (confidence 7) [0052322F] Copy OK

Track 11

Filename Various - Round Midnight\11 - Chan's Song (Never Said).wav

Pre-gap length 0:00:01.17

Peak level 60.7 % Track quality 100.0 % Test CRC 14BAB26D Copy CRC 14BAB26D Accurately ripped (confidence 7) [5FCD533E] Copy OK

All tracks accurately ripped

No errors occurred

End of status report
REM ACCURATERIPID 00167cc7-00c03406-a10c090bREM GENRE "Soundtrack"REM DATE 1986REM DISCID A10C090BREM COMMENT "ExactAudioCopy v0.99pb3"PERFORMER "Various"TITLE "Round Midnight"FILE "01 - 'Round Midnight.flac" WAVE TRACK 01 AUDIO TITLE "'Round Midnight" PERFORMER "Bobby McFerrin" INDEX 01 00:00:00FILE "02 - Body and Soul.flac" WAVE TRACK 02 AUDIO TITLE "Body and Soul" PERFORMER "Dexter Gordon" INDEX 01 00:00:00FILE "03 - Berangere's Nightmare.flac" WAVE TRACK 03 AUDIO TITLE "Bérangére's Nightmare" PERFORMER "Herbie Hancock" INDEX 01 00:00:00FILE "04 - Fair Weather.flac" WAVE TRACK 04 AUDIO TITLE "Fair Weather" PERFORMER "Herbie Hancock" INDEX 01 00:00:00FILE "05 - Una Noche con Francis.flac" WAVE TRACK 05 AUDIO TITLE "Una Noche con Francis" PERFORMER "Herbie Hancock" INDEX 01 00:00:00FILE "06 - The Peacocks.flac" WAVE TRACK 06 AUDIO TITLE "The Peacocks" PERFORMER "Herbie Hancock" INDEX 01 00:00:00FILE "07 - How Long has This been Going On.flac" WAVE TRACK 07 AUDIO TITLE "How Long has This been Going On?" PERFORMER "Dexter Gordon" INDEX 01 00:00:00FILE "08 - Rhythm-a-Ning.flac" WAVE TRACK 08 AUDIO TITLE "Rhythm-a-Ning" PERFORMER "Cedar Walton" INDEX 01 00:00:00FILE "09 - Still Time.flac" WAVE TRACK 09 AUDIO TITLE "Still Time" PERFORMER "Herbie Hancock" INDEX 01 00:00:00FILE "10 - Minuit aux Champs-Elysees.flac" WAVE TRACK 10 AUDIO TITLE "Minuit aux Champs-Elysées" PERFORMER "Herbie Hancock" INDEX 01 00:00:00 TRACK 11 AUDIO TITLE "Chan's Song (Never Said) " PERFORMER "Herbie Hancock" INDEX 00 03:24:05FILE "11 - Chan's Song (Never Said).flac" WAVE INDEX 01 00:00:00


Трекер:  [ 22-Май-2017 16:00 ]

  

Скачать .torrent

Размер .torrent файла 21 KB


Размер: 252 MB
Хэш (hash) релиза: badf84c6dbb471055386846209e42b82c8377208

Еще никто не оставлял запись к записи скачать торрент Около полуночи Полночный джаз . Будь первым!

!Обратная связь