Скачать через торрент музыку Чёрный скакун Вороной жеребец бесплатно без регистрации torrent

Если у вас наблюдаются проблемы со скриншотами, переходом по ссылками, скачиванием торрентов - проблемы в блокировщике рекламы AdBlock. #хорошегоДня!


Статистика раздачи
Размер:  592 MB   |    Зарегистрирован:  3 месяца 28 дней   |    .torrent скачан:  12 раз   |   
Раздают:  1  
   
Загрузка...
 
Автор Сообщение

Galfimbul

avatar Galfimbul


The Black StallionКомпозитор Carmine Coppolaа также Shirley Walker, Nyle Steiner, Dick Rosmini и др.
Жанр
: Score
Год выпуска диска: 2009
Производитель диска: США (Intrada)
Аудио кодек: FLAC
Тип рипа: tracks+.cue
Битрейт аудио: lossless
Продолжительность (3 диска): 2:06:06
«Чёрный скакун»
— прекрасно выполненный фильм «для семейного просмотра» о приключениях мальчишки и великолепного коня, чья необычная дружба началась с совместного противостояния безжалостным обстоятельствам, а затем привела к нормальным американским спортивным успехам. В саундтреке присутствуют как симфонические, так и кантри-блюзовые мотивы. В трёхдисковом издании первый диск соответствует первой части фильма — «На острове», второй, соответственно — «Скачки», а на третьем диске представлен вариант альбома в той редакции, в которой он был издан на виниле в год выхода фильма.
01. Theme from The Black Stallion [Chamber Orchestra] (Carmine Coppola) 3:34
02. Main Title (Carmine Coppola) 1:39
03. On the Deck (Shirley Walker, Dick Rosmini) 2:25
04. Horse Statue I / Fire on Deck [Unused] (Carmine Coppola) 0:51
05. The Island (Carmine Coppola, Shirley Walker, Nyle Steiner, Bill Douglas) 3:26
06. Nightfall Transition [Unused] (Carmine Coppola) 1:08
07. Fishing / Magnificent Horse (Carmine Coppola) 2:19
08. Snake / Snake Tag (Carmine Coppola) 2:04
09. Cobra Death [Unused] (Carmine Coppola) 0:32
10. The Black Stallion / Fire & The Legend (Shirley Walker, Nyle Steiner / Carmine Coppola) 1:56
11. Fire & The Legend [Alternate] (Carmine Coppola) 1:15
12. First Feeding / Seaweed in Hand [Unused] / Tag in the Afternoon (Shirley Walker, Nyle Steiner / Carmine Coppola, Kennett Nash, George Marsh / Carmine Coppola) 7:44
13. Castaways [Unused] (Carmine Coppola) 3:31
14. Underwater Ballet [Unused] (Carmine Coppola) 1:33
15. Underwater Ballet [Alternate] (Carmine Coppola, Shirley Walker, Nyle Steiner) 1:31
16. Underwater Ballet / The Ride (Carmine Coppola, Shirley Walker, Nyle Steiner / Carmine Coppola, Shirley Walker) 3:53
17. The Ride [Original] (Carmine Coppola) 2:33
18. Nightfall [Original] / Nightfall (Carmine Coppola / Shirley Walker) 2:01
19. The Rescue [Original] (Carmine Coppola) 4:11
20. The Rescue (Carmine Coppola, Shirley Walker, Nyle Steiner) 4:09
01. Ode to Alec Ramsey (Carmine Coppola) 0:55
02. Home (Carmine Coppola) 1:54
03. Runaway [Original] (Carmine Coppola) 1:37
04. Runaway (Carmine Coppola) 2:24
05. Training I (Dick Rosmini) 1:05
06. Training I [Unused] (Carmine Coppola, Dick Rosmini) 1:06
07. Henry's Place / Car Ride (Carmine Coppola) 2:45
08. Secret Room (Carmine Coppola) 1:21
09. Training II [Original] (Carmine Coppola) 4:34
10. Training II (Dick Rosmini) 1:10
11. Movietone (Carmine Coppola) 0:37
12. Training III (Dick Rosmini) 0:54
13. First Sneak [Unused] (Nada Lewis) 2:58
14. Bloody Hand [Unused] / Dad's Glove (Carmine Coppola) 6:30
15. The Paddock [Unused] / Fanfares [Unused] (Kenneth Nash, Shirley Walker / Shirley Walker) 2:35
16. Call to the Gate (Anon.) 0:17
17. Flashback [Original] (Carmine Coppola) 0:50
18. Flashback & Winner's Circle (Carmine Coppola) 1:53
19. Horse Statue II (Carmine Coppola) 0:32
20. End Credits (Carmine Coppola) 3:05
01. Theme from The Black Stallion (Carmine Coppola) 2:32
02. The Island (Carmine Coppola, Shirley Walker, Nyle Steiner, Bill Douglas) 3:27
03. Cobra Death (Carmine Coppola) 1:50
04. First Feeding (Shirley Walker, Nyle Steiner) 2:11
05. The Black Stallion (Shirley Walker, Nyle Steiner) 0:46
06. Playing Tag & Magnificent Horse (Carmine Coppola, Kennett Nash, George Marsh) 2:35
07. The Legend (Carmine Coppola) 1:15
08. The Campfire (Carmine Coppola) 1:03
09. The Ride (Carmine Coppola, Shirley Walker) 2:31
10. The Rescue (Carmine Coppola, Shirley Walker, Nyle Steiner) 3:55
11. Dad's Glove and Watch (Carmine Coppola) 2:39
12. Chase through Town (Carmine Coppola) 2:21
13. In Training (Dick Rosmini) 1:59
14. Henry (Carmine Coppola) 1:50
15. Flashback & Winner's Circle (Carmine Coppola) 1:33
16. Reprise — Theme from The Black Stallion (Carmine Coppola) 2:32
<div class="sp-wrap">
<div class="sp-head folded">CD 1</div>
<div class="sp-body">

Exact Audio Copy V0.99 prebeta 5 from 4. May 2009

EAC extraction logfile from 2. September 2009, 0:21

Various / Black Stallion, The

Used drive : TSSTcorpCD/DVDW TS-H653L Adapter: 1 ID: 0

Read mode : SecureUtilize accurate stream : YesDefeat audio cache : YesMake use of C2 pointers : No

Read offset correction : 6Overread into Lead-In and Lead-Out : NoFill up missing offset samples with silence : YesDelete leading and trailing silent blocks : NoNull samples used in CRC calculations : YesUsed interface : Native Win32 interface for Win NT & 2000Gap handling : Appended to previous track

Used output format : User Defined EncoderSelected bitrate : 320 kBit/sQuality : HighAdd ID3 tag : NoCommand line compressor : C:\Program Files\Exact Audio Copy\Flac\flac.exeAdditional command line options : -V -8 -T "artist=%a" -T "title=%t" -T "album=%g" -T "date=%y" -T "tracknumber=%n" -T "genre=%m" %s

TOC of the extracted CD

Track | Start | Length | Start sector | End sector --------------------------------------------------------- 1 | 0:00.00 | 3:33.70 | 0 | 16044 2 | 3:33.70 | 1:38.65 | 16045 | 23459 3 | 5:12.60 | 2:24.37 | 23460 | 34296 4 | 7:37.22 | 0:50.35 | 34297 | 38081 5 | 8:27.57 | 3:26.14 | 38082 | 53545 6 | 11:53.71 | 1:07.34 | 53546 | 58604 7 | 13:01.30 | 2:18.42 | 58605 | 68996 8 | 15:19.72 | 2:03.42 | 68997 | 78263 9 | 17:23.39 | 0:31.47 | 78264 | 80635 10 | 17:55.11 | 1:55.63 | 80636 | 89323 11 | 19:50.74 | 1:14.56 | 89324 | 94929 12 | 21:05.55 | 7:43.19 | 94930 | 129673 13 | 28:48.74 | 3:30.29 | 129674 | 145452 14 | 32:19.28 | 1:32.32 | 145453 | 152384 15 | 33:51.60 | 1:31.18 | 152385 | 159227 16 | 35:23.03 | 3:52.74 | 159228 | 176701 17 | 39:16.02 | 2:32.26 | 176702 | 188127 18 | 41:48.28 | 2:01.22 | 188128 | 197224 19 | 43:49.50 | 4:10.22 | 197225 | 215996 20 | 47:59.72 | 4:08.64 | 215997 | 234660

Track 1

Filename C:\EACRips\01 - Theme from The Black Stallion (Chamber Orchestra).wav

Pre-gap length 0:00:02.00

Peak level 50.9 % Track quality 100.0 % Test CRC 3F12D772 Copy CRC 3F12D772 Track not present in AccurateRip database Copy OK

Track 2

Filename C:\EACRips\02 - Main Title.wav

Peak level 36.8 % Track quality 100.0 % Test CRC 90C280BF Copy CRC 90C280BF Track not present in AccurateRip database Copy OK

Track 3

Filename C:\EACRips\03 - On the Deck.wav

Peak level 62.7 % Track quality 100.0 % Test CRC 0759B37E Copy CRC 0759B37E Track not present in AccurateRip database Copy OK

Track 4

Filename C:\EACRips\04 - Horse Statue I; Fire on Deck.wav

Peak level 89.7 % Track quality 99.7 % Test CRC D926103B Copy CRC D926103B Track not present in AccurateRip database Copy OK

Track 5

Filename C:\EACRips\05 - The Island.wav

Peak level 58.4 % Track quality 99.9 % Test CRC A444D7C4 Copy CRC A444D7C4 Track not present in AccurateRip database Copy OK

Track 6

Filename C:\EACRips\06 - Nightfall Transition.wav

Peak level 32.0 % Track quality 100.0 % Test CRC 08C59AD7 Copy CRC 08C59AD7 Track not present in AccurateRip database Copy OK

Track 7

Filename C:\EACRips\07 - Fishing; Magnificent Horse.wav

Peak level 80.8 % Track quality 100.0 % Test CRC 19C8DC90 Copy CRC 19C8DC90 Track not present in AccurateRip database Copy OK

Track 8

Filename C:\EACRips\08 - Snake; Snake Tag.wav

Peak level 78.3 % Track quality 100.0 % Test CRC 951D054F Copy CRC 951D054F Track not present in AccurateRip database Copy OK

Track 9

Filename C:\EACRips\09 - Cobra Death.wav

Peak level 89.4 % Track quality 100.0 % Test CRC 4E518BA5 Copy CRC 4E518BA5 Track not present in AccurateRip database Copy OK

Track 10

Filename C:\EACRips\10 - The Black Stallion; Fire & the Legend.wav

Peak level 89.6 % Track quality 100.0 % Test CRC A120539D Copy CRC A120539D Track not present in AccurateRip database Copy OK

Track 11

Filename C:\EACRips\11 - Fire & the Legend - Alternate.wav

Peak level 92.0 % Track quality 100.0 % Test CRC 5A7B41C0 Copy CRC 5A7B41C0 Track not present in AccurateRip database Copy OK

Track 12

Filename C:\EACRips\12 - First Feeding; Seaweed In Hand; Tag in the Afternoon.wav

Peak level 95.5 % Track quality 100.0 % Test CRC DF3DE11E Copy CRC DF3DE11E Track not present in AccurateRip database Copy OK

Track 13

Filename C:\EACRips\13 - Castaways.wav

Peak level 66.2 % Track quality 100.0 % Test CRC 1324CDCE Copy CRC 1324CDCE Track not present in AccurateRip database Copy OK

Track 14

Filename C:\EACRips\14 - Underwater Ballet.wav

Peak level 52.0 % Track quality 100.0 % Test CRC 3973AA5E Copy CRC 3973AA5E Track not present in AccurateRip database Copy OK

Track 15

Filename C:\EACRips\15 - Underwater Ballet - Alternate.wav

Peak level 76.3 % Track quality 100.0 % Test CRC 11E0EAB3 Copy CRC 11E0EAB3 Track not present in AccurateRip database Copy OK

Track 16

Filename C:\EACRips\16 - Underwater Ballet - Film Version; The Ride.wav

Peak level 100.0 % Track quality 100.0 % Test CRC 602AB91A Copy CRC 602AB91A Track not present in AccurateRip database Copy OK

Track 17

Filename C:\EACRips\17 - The Ride - Original Version.wav

Peak level 97.6 % Track quality 100.0 % Test CRC 5D3E8271 Copy CRC 5D3E8271 Track not present in AccurateRip database Copy OK

Track 18

Filename C:\EACRips\18 - Nightfall - Original Version; Nightfall.wav

Peak level 29.6 % Track quality 100.0 % Test CRC F5DE4E4E Copy CRC F5DE4E4E Track not present in AccurateRip database Copy OK

Track 19

Filename C:\EACRips\19 - The Rescue - Original Version.wav

Peak level 91.1 % Track quality 100.0 % Test CRC 458F54B7 Copy CRC 458F54B7 Track not present in AccurateRip database Copy OK

Track 20

Filename C:\EACRips\20 - The Rescue.wav

Peak level 89.2 % Track quality 100.0 % Test CRC 824464FD Copy CRC 824464FD Track not present in AccurateRip database Copy OK

None of the tracks are present in the AccurateRip database

No errors occurred

End of status report
Exact Audio Copy V0.99 prebeta 5 from 4. May 2009

EAC extraction logfile from 2. September 2009, 0:40

Various / Black Stallion, The (expanded)

Used drive : TSSTcorpCD/DVDW TS-H653L Adapter: 1 ID: 0

Read mode : SecureUtilize accurate stream : YesDefeat audio cache : YesMake use of C2 pointers : No

Read offset correction : 6Overread into Lead-In and Lead-Out : NoFill up missing offset samples with silence : YesDelete leading and trailing silent blocks : NoNull samples used in CRC calculations : YesUsed interface : Native Win32 interface for Win NT & 2000Gap handling : Appended to previous track

Used output format : User Defined EncoderSelected bitrate : 320 kBit/sQuality : HighAdd ID3 tag : NoCommand line compressor : C:\Program Files\Exact Audio Copy\Flac\flac.exeAdditional command line options : -V -8 -T "artist=%a" -T "title=%t" -T "album=%g" -T "date=%y" -T "tracknumber=%n" -T "genre=%m" %s

TOC of the extracted CD

Track | Start | Length | Start sector | End sector --------------------------------------------------------- 1 | 0:00.00 | 0:54.72 | 0 | 4121 2 | 0:54.72 | 1:54.14 | 4122 | 12685 3 | 2:49.11 | 1:36.74 | 12686 | 19959 4 | 4:26.10 | 2:23.22 | 19960 | 30706 5 | 6:49.32 | 1:05.29 | 30707 | 35610 6 | 7:54.61 | 1:06.00 | 35611 | 40560 7 | 9:00.61 | 2:44.49 | 40561 | 52909 8 | 11:45.35 | 1:20.44 | 52910 | 58953 9 | 13:06.04 | 4:34.07 | 58954 | 79510 10 | 17:40.11 | 1:09.66 | 79511 | 84751 11 | 18:50.02 | 0:37.02 | 84752 | 87528 12 | 19:27.04 | 0:54.18 | 87529 | 91596 13 | 20:21.22 | 2:58.00 | 91597 | 104946 14 | 23:19.22 | 6:29.72 | 104947 | 134193 15 | 29:49.19 | 2:35.11 | 134194 | 145829 16 | 32:24.30 | 0:16.74 | 145830 | 147103 17 | 32:41.29 | 0:50.11 | 147104 | 150864 18 | 33:31.40 | 1:53.09 | 150865 | 159348 19 | 35:24.49 | 0:31.34 | 159349 | 161707 20 | 35:56.08 | 3:04.35 | 161708 | 175542

Track 1

Filename C:\EACRips\01 - Ode to Alex Ramsey.wav

Pre-gap length 0:00:02.00

Peak level 86.9 % Track quality 100.0 % Test CRC 69D95284 Copy CRC 69D95284 Track not present in AccurateRip database Copy OK

Track 2

Filename C:\EACRips\02 - Home.wav

Peak level 68.4 % Track quality 100.0 % Test CRC 87741013 Copy CRC 87741013 Track not present in AccurateRip database Copy OK

Track 3

Filename C:\EACRips\03 - Runaway - Original Version.wav

Peak level 100.0 % Track quality 99.8 % Test CRC 9F908C49 Copy CRC 9F908C49 Track not present in AccurateRip database Copy OK

Track 4

Filename C:\EACRips\04 - Runaway.wav

Peak level 92.0 % Track quality 100.0 % Test CRC 020CB0E2 Copy CRC 020CB0E2 Track not present in AccurateRip database Copy OK

Track 5

Filename C:\EACRips\05 - Training I.wav

Peak level 73.1 % Track quality 99.8 % Test CRC E5E2C34E Copy CRC E5E2C34E Track not present in AccurateRip database Copy OK

Track 6

Filename C:\EACRips\06 - Training I (unused).wav

Peak level 58.4 % Track quality 100.0 % Test CRC 292E8D5F Copy CRC 292E8D5F Track not present in AccurateRip database Copy OK

Track 7

Filename C:\EACRips\07 - Henry's Place; Car Ride.wav

Peak level 64.0 % Track quality 100.0 % Test CRC 2A71C70C Copy CRC 2A71C70C Track not present in AccurateRip database Copy OK

Track 8

Filename C:\EACRips\08 - Secret Room.wav

Peak level 27.5 % Track quality 100.0 % Test CRC CC923ACB Copy CRC CC923ACB Track not present in AccurateRip database Copy OK

Track 9

Filename C:\EACRips\09 - Training II - Original Version.wav

Peak level 93.2 % Track quality 100.0 % Test CRC DD121E59 Copy CRC DD121E59 Track not present in AccurateRip database Copy OK

Track 10

Filename C:\EACRips\10 - Training II.wav

Peak level 72.5 % Track quality 100.0 % Test CRC E3F47333 Copy CRC E3F47333 Track not present in AccurateRip database Copy OK

Track 11

Filename C:\EACRips\11 - Movietone.wav

Peak level 96.7 % Track quality 100.0 % Test CRC FF729142 Copy CRC FF729142 Track not present in AccurateRip database Copy OK

Track 12

Filename C:\EACRips\12 - Training III.wav

Peak level 73.0 % Track quality 100.0 % Test CRC 7D4EDFC0 Copy CRC 7D4EDFC0 Track not present in AccurateRip database Copy OK

Track 13

Filename C:\EACRips\13 - First Sneak.wav

Peak level 73.8 % Track quality 99.9 % Test CRC 339CF8D8 Copy CRC 339CF8D8 Track not present in AccurateRip database Copy OK

Track 14

Filename C:\EACRips\14 - Bloody Hand; Dad's Glove.wav

Peak level 51.5 % Track quality 100.0 % Test CRC 7E949FE2 Copy CRC 7E949FE2 Track not present in AccurateRip database Copy OK

Track 15

Filename C:\EACRips\15 - The Paddock; Fanfares.wav

Peak level 100.0 % Track quality 100.0 % Test CRC E87C158D Copy CRC E87C158D Track not present in AccurateRip database Copy OK

Track 16

Filename C:\EACRips\16 - Call to the Gate.wav

Peak level 94.1 % Track quality 100.0 % Test CRC 62DBC8D8 Copy CRC 62DBC8D8 Track not present in AccurateRip database Copy OK

Track 17

Filename C:\EACRips\17 - Flashback - Original Version.wav

Peak level 87.1 % Track quality 99.7 % Test CRC 6DC4D4AB Copy CRC 6DC4D4AB Track not present in AccurateRip database Copy OK

Track 18

Filename C:\EACRips\18 - Flashback & Winner's Circle.wav

Peak level 92.9 % Track quality 100.0 % Test CRC 4136E846 Copy CRC 4136E846 Track not present in AccurateRip database Copy OK

Track 19

Filename C:\EACRips\19 - Horse Statue II.wav

Peak level 52.8 % Track quality 100.0 % Test CRC 7EDDE8D7 Copy CRC 7EDDE8D7 Track not present in AccurateRip database Copy OK

Track 20

Filename C:\EACRips\20 - End Credits.wav

Peak level 63.3 % Track quality 100.0 % Test CRC 965A0707 Copy CRC 965A0707 Track not present in AccurateRip database Copy OK

None of the tracks are present in the AccurateRip database

No errors occurred

End of status report
Exact Audio Copy V0.99 prebeta 5 from 4. May 2009

EAC extraction logfile from 2. September 2009, 1:05

Various / Black Stallion, The

Used drive : TSSTcorpCD/DVDW TS-H653L Adapter: 1 ID: 0

Read mode : SecureUtilize accurate stream : YesDefeat audio cache : YesMake use of C2 pointers : No

Read offset correction : 6Overread into Lead-In and Lead-Out : NoFill up missing offset samples with silence : YesDelete leading and trailing silent blocks : NoNull samples used in CRC calculations : YesUsed interface : Native Win32 interface for Win NT & 2000Gap handling : Appended to previous track

Used output format : User Defined EncoderSelected bitrate : 320 kBit/sQuality : HighAdd ID3 tag : NoCommand line compressor : C:\Program Files\Exact Audio Copy\Flac\flac.exeAdditional command line options : -V -8 -T "artist=%a" -T "title=%t" -T "album=%g" -T "date=%y" -T "tracknumber=%n" -T "genre=%m" %s

TOC of the extracted CD

Track | Start | Length | Start sector | End sector --------------------------------------------------------- 1 | 0:00.00 | 2:31.67 | 0 | 11391 2 | 2:31.67 | 3:26.69 | 11392 | 26910 3 | 5:58.61 | 1:49.46 | 26911 | 35131 4 | 7:48.32 | 2:10.71 | 35132 | 44952 5 | 9:59.28 | 0:46.07 | 44953 | 48409 6 | 10:45.35 | 2:34.52 | 48410 | 60011 7 | 13:20.12 | 1:15.18 | 60012 | 65654 8 | 14:35.30 | 1:02.62 | 65655 | 70366 9 | 15:38.17 | 2:30.50 | 70367 | 81666 10 | 18:08.67 | 3:54.60 | 81667 | 99276 11 | 22:03.52 | 2:38.72 | 99277 | 111198 12 | 24:42.49 | 2:21.11 | 111199 | 121784 13 | 27:03.60 | 1:58.42 | 121785 | 130676 14 | 29:02.27 | 1:49.50 | 130677 | 138901 15 | 30:52.02 | 1:32.38 | 138902 | 145839 16 | 32:24.40 | 2:31.31 | 145840 | 157195

Track 1

Filename C:\EACRips\01 - Theme from The Black Stallion.wav

Pre-gap length 0:00:02.00

Peak level 92.5 % Track quality 100.0 % Test CRC C093A3D2 Copy CRC C093A3D2 Track not present in AccurateRip database Copy OK

Track 2

Filename C:\EACRips\02 - The Island.wav

Peak level 61.9 % Track quality 100.0 % Test CRC CEB35B8A Copy CRC CEB35B8A Track not present in AccurateRip database Copy OK

Track 3

Filename C:\EACRips\03 - Cobra Death.wav

Peak level 71.0 % Track quality 100.0 % Test CRC 418BEFEE Copy CRC 418BEFEE Track not present in AccurateRip database Copy OK

Track 4

Filename C:\EACRips\04 - First Feeding.wav

Peak level 65.8 % Track quality 100.0 % Test CRC 056E6180 Copy CRC 056E6180 Track not present in AccurateRip database Copy OK

Track 5

Filename C:\EACRips\05 - The Black Stallion.wav

Peak level 99.4 % Track quality 100.0 % Test CRC 073CCB70 Copy CRC 073CCB70 Track not present in AccurateRip database Copy OK

Track 6

Filename C:\EACRips\06 - Playing Tag & Magnificant Horse.wav

Peak level 100.0 % Track quality 100.0 % Test CRC 872828E1 Copy CRC 872828E1 Track not present in AccurateRip database Copy OK

Track 7

Filename C:\EACRips\07 - The Legend.wav

Peak level 100.0 % Track quality 100.0 % Test CRC 534312FA Copy CRC 534312FA Track not present in AccurateRip database Copy OK

Track 8

Filename C:\EACRips\08 - Campfire.wav

Peak level 46.5 % Track quality 100.0 % Test CRC D5703059 Copy CRC D5703059 Track not present in AccurateRip database Copy OK

Track 9

Filename C:\EACRips\09 - The Ride.wav

Peak level 100.0 % Track quality 100.0 % Test CRC 246490B8 Copy CRC 246490B8 Track not present in AccurateRip database Copy OK

Track 10

Filename C:\EACRips\10 - The Rescue.wav

Peak level 52.1 % Track quality 100.0 % Test CRC 91AD0E93 Copy CRC 91AD0E93 Track not present in AccurateRip database Copy OK

Track 11

Filename C:\EACRips\11 - Dad's Glove and Watch.wav

Peak level 74.9 % Track quality 100.0 % Test CRC 46AA1694 Copy CRC 46AA1694 Track not present in AccurateRip database Copy OK

Track 12

Filename C:\EACRips\12 - Chase Through Town.wav

Peak level 94.1 % Track quality 100.0 % Test CRC 678D3BA2 Copy CRC 678D3BA2 Track not present in AccurateRip database Copy OK

Track 13

Filename C:\EACRips\13 - In Training.wav

Peak level 82.1 % Track quality 99.9 % Test CRC 7453868A Copy CRC 7453868A Track not present in AccurateRip database Copy OK

Track 14

Filename C:\EACRips\14 - Henry.wav

Peak level 64.1 % Track quality 100.0 % Test CRC 0FA04452 Copy CRC 0FA04452 Track not present in AccurateRip database Copy OK

Track 15

Filename C:\EACRips\15 - Flashback & Winner's Circle.wav

Peak level 69.5 % Track quality 100.0 % Test CRC 793A2B8D Copy CRC 793A2B8D Track not present in AccurateRip database Copy OK

Track 16

Filename C:\EACRips\16 - Reprise- Theme from The Black Stallion.wav

Peak level 66.2 % Track quality 99.9 % Test CRC 1E2479F6 Copy CRC 1E2479F6 Track not present in AccurateRip database Copy OK

None of the tracks are present in the AccurateRip database

No errors occurred

End of status report
</div>
</div>
<div class="sp-wrap">
<div class="sp-head folded">CD 1</div>
<div class="sp-body">

REM ACCURATERIPID 00221cf7-01fbeadd-f80c3814REM GENRE "Soundtrack"REM DATE 1979REM DISCID F80C3814REM COMMENT "ExactAudioCopy v0.99pb5"PERFORMER "Various"TITLE "The Black Stallion : The Island"REM TOTALDISCS 3REM DISCNUMBER 1FILE "01 - Theme from The Black Stallion [Chamber Orchestra].flac" WAVE TRACK 01 AUDIO TITLE "Theme from The Black Stallion [Chamber Orchestra]" PERFORMER "Carmine Coppola" INDEX 01 00:00:00FILE "02 - Main Title.flac" WAVE TRACK 02 AUDIO TITLE "Main Title" PERFORMER "Carmine Coppola" INDEX 01 00:00:00FILE "03 - On the Deck.flac" WAVE TRACK 03 AUDIO TITLE "On the Deck" PERFORMER "Shirley Walker, Dick Rosmini" INDEX 01 00:00:00FILE "04 - Horse Statue I - Fire on Deck [Unused].flac" WAVE TRACK 04 AUDIO TITLE "Horse Statue I / Fire on Deck [Unused]" PERFORMER "Carmine Coppola" INDEX 01 00:00:00FILE "05 - The Island.flac" WAVE TRACK 05 AUDIO TITLE "The Island" PERFORMER "Carmine Coppola, Shirley Walker, Nyle Steiner, Bill Douglas" INDEX 01 00:00:00FILE "06 - Nightfall Transition [Unused].flac" WAVE TRACK 06 AUDIO TITLE "Nightfall Transition [Unused]" PERFORMER "Carmine Coppola" INDEX 01 00:00:00FILE "07 - Fishing - Magnificent Horse.flac" WAVE TRACK 07 AUDIO TITLE "Fishing / Magnificent Horse" PERFORMER "Carmine Coppola" INDEX 01 00:00:00FILE "08 - Snake - Snake Tag.flac" WAVE TRACK 08 AUDIO TITLE "Snake / Snake Tag" PERFORMER "Carmine Coppola" INDEX 01 00:00:00FILE "09 - Cobra Death [Unused].flac" WAVE TRACK 09 AUDIO TITLE "Cobra Death [Unused]" PERFORMER "Carmine Coppola" INDEX 01 00:00:00FILE "10 - The Black Stallion - Fire , The Legend.flac" WAVE TRACK 10 AUDIO TITLE "The Black Stallion / Fire & The Legend" PERFORMER "Shirley Walker, Nyle Steiner, Carmine Coppola" INDEX 01 00:00:00FILE "11 - Fire , The Legend [Alternate].flac" WAVE TRACK 11 AUDIO TITLE "Fire & The Legend [Alternate]" PERFORMER "Carmine Coppola" INDEX 01 00:00:00FILE "12 - First Feeding - Seaweed in Hand [Unused] - Tag in the Afternoon.flac" WAVE TRACK 12 AUDIO TITLE "First Feeding / Seaweed in Hand [Unused] / Tag in the Afternoon" PERFORMER "Shirley Walker, Nyle Steiner, Carmine Coppola, Kenneth Nash, George Marsh" INDEX 01 00:00:00FILE "13 - Castaways [Unused].flac" WAVE TRACK 13 AUDIO TITLE "Castaways [Unused]" PERFORMER "Carmine Coppola" INDEX 01 00:00:00FILE "14 - Underwater Ballet [Unused].flac" WAVE TRACK 14 AUDIO TITLE "Underwater Ballet [Unused]" PERFORMER "Carmine Coppola" INDEX 01 00:00:00FILE "15 - Underwater Ballet [Alternate].flac" WAVE TRACK 15 AUDIO TITLE "Underwater Ballet [Alternate]" PERFORMER "Carmine Coppola, Shirley Walker, Nyle Steiner" INDEX 01 00:00:00FILE "16 - Underwater Ballet - The Ride.flac" WAVE TRACK 16 AUDIO TITLE "Underwater Ballet / The Ride" PERFORMER "Carmine Coppola, Shirley Walker, Nyle Steiner" INDEX 01 00:00:00FILE "17 - The Ride [Original].flac" WAVE TRACK 17 AUDIO TITLE "The Ride [Original]" PERFORMER "Carmine Coppola" INDEX 01 00:00:00FILE "18 - Nightfall [Original] - Nightfall.flac" WAVE TRACK 18 AUDIO TITLE "Nightfall [Original] / Nightfall" PERFORMER "Carmine Coppola, Shirley Walker" INDEX 01 00:00:00FILE "19 - The Rescue [Original].flac" WAVE TRACK 19 AUDIO TITLE "The Rescue [Original]" PERFORMER "Carmine Coppola" INDEX 01 00:00:00FILE "20 - The Rescue.flac" WAVE TRACK 20 AUDIO TITLE "The Rescue" PERFORMER "Carmine Coppola, Shirley Walker, Nyle Steiner" INDEX 01 00:00:00
REM ACCURATERIPID 001b2308-01971938-f6092414REM GENRE "Soundtrack"REM DATE 1979REM DISCID F6092414REM COMMENT "ExactAudioCopy v0.99pb5"PERFORMER "Carmine Coppola"TITLE "The Black Stallion : The Race"REM TOTALDISCS 3REM DISCNUMBER 2FILE "01 - Ode to Alex Ramsey.flac" WAVE TRACK 01 AUDIO TITLE "Ode to Alec Ramsey" PERFORMER "Carmine Coppola" INDEX 01 00:00:00FILE "02 - Home.flac" WAVE TRACK 02 AUDIO TITLE "Home" PERFORMER "Carmine Coppola" INDEX 01 00:00:00FILE "03 - Runaway [Original].flac" WAVE TRACK 03 AUDIO TITLE "Runaway [Original]" PERFORMER "Carmine Coppola" INDEX 01 00:00:00FILE "04 - Runaway.flac" WAVE TRACK 04 AUDIO TITLE "Runaway" PERFORMER "Carmine Coppola" INDEX 01 00:00:00FILE "05 - Training I.flac" WAVE TRACK 05 AUDIO TITLE "Training I" PERFORMER "Dick Rosmini" INDEX 01 00:00:00FILE "06 - Training I [Unused].flac" WAVE TRACK 06 AUDIO TITLE "Training I [Unused]" PERFORMER "Carmine Coppola, Dick Rosmini" INDEX 01 00:00:00FILE "07 - Henry's Place - Car Ride.flac" WAVE TRACK 07 AUDIO TITLE "Henry's Place / Car Ride" PERFORMER "Carmine Coppola" INDEX 01 00:00:00FILE "08 - Secret Room.flac" WAVE TRACK 08 AUDIO TITLE "Secret Room" PERFORMER "Carmine Coppola" INDEX 01 00:00:00FILE "09 - Training II [Original].flac" WAVE TRACK 09 AUDIO TITLE "Training II [Original]" PERFORMER "Carmine Coppola" INDEX 01 00:00:00FILE "10 - Training II.flac" WAVE TRACK 10 AUDIO TITLE "Training II" PERFORMER "Dick Rosmini" INDEX 01 00:00:00FILE "11 - Movietone.flac" WAVE TRACK 11 AUDIO TITLE "Movietone" PERFORMER "Carmine Coppola" INDEX 01 00:00:00FILE "12 - Training III.flac" WAVE TRACK 12 AUDIO TITLE "Training III" PERFORMER "Dick Rosmini" INDEX 01 00:00:00FILE "13 - First Sneak [Unused].flac" WAVE TRACK 13 AUDIO TITLE "First Sneak [Unused]" PERFORMER "Nada Lewis" INDEX 01 00:00:00FILE "14 - Bloody Hand [Unused] - Dad's Glove.flac" WAVE TRACK 14 AUDIO TITLE "Bloody Hand [Unused] / Dad's Glove" PERFORMER "Carmine Coppola" INDEX 01 00:00:00FILE "15 - The Paddock [Unused] - Fanfares [Unused].flac" WAVE TRACK 15 AUDIO TITLE "The Paddock [Unused] / Fanfares [Unused]" PERFORMER "Kenneth Nash, Shirley Walker" INDEX 01 00:00:00FILE "16 - Call to the Gate.flac" WAVE TRACK 16 AUDIO TITLE "Call to the Gate" PERFORMER "Public Domain" INDEX 01 00:00:00FILE "17 - Flashback [Original].flac" WAVE TRACK 17 AUDIO TITLE "Flashback [Original]" PERFORMER "Carmine Coppola" INDEX 01 00:00:00FILE "18 - Flashback , Winner's Circle.flac" WAVE TRACK 18 AUDIO TITLE "Flashback & Winner's Circle" PERFORMER "Carmine Coppola" INDEX 01 00:00:00FILE "19 - Horse Statue II.flac" WAVE TRACK 19 AUDIO TITLE "Horse Statue II" PERFORMER "Carmine Coppola" INDEX 01 00:00:00FILE "20 - End Credits.flac" WAVE TRACK 20 AUDIO TITLE "End Credits" PERFORMER "Carmine Coppola" INDEX 01 00:00:00
REM ACCURATERIPID 001496ff-00f5682c-ce082f10REM GENRE "Soundtrack"REM DATE 1979REM DISCID CE082F10REM COMMENT "ExactAudioCopy v0.99pb5"PERFORMER "Carmine Coppola"TITLE "The Black Stallion : 1979 Album"REM TOTALDISCS 3REM DISCNUMBER 3FILE "01 - Theme from The Black Stallion.flac" WAVE TRACK 01 AUDIO TITLE "Theme from The Black Stallion" PERFORMER "Carmine Coppola" INDEX 01 00:00:00FILE "02 - The Island.flac" WAVE TRACK 02 AUDIO TITLE "The Island" PERFORMER "Carmine Coppola, Shirley Walker, Nyle Steiner, Bill Douglas" INDEX 01 00:00:00FILE "03 - Cobra Death.flac" WAVE TRACK 03 AUDIO TITLE "Cobra Death" PERFORMER "Carmine Coppola" INDEX 01 00:00:00FILE "04 - First Feeding.flac" WAVE TRACK 04 AUDIO TITLE "First Feeding" PERFORMER "Shirley Walker, Nyle Steiner" INDEX 01 00:00:00FILE "05 - The Black Stallion.flac" WAVE TRACK 05 AUDIO TITLE "The Black Stallion" PERFORMER "Shirley Walker, Nyle Steiner" INDEX 01 00:00:00FILE "06 - Playing Tag , Magnificent Horse.flac" WAVE TRACK 06 AUDIO TITLE "Playing Tag & Magnificent Horse" PERFORMER "Carmine Coppola, Kenneth Nash, George Marsh" INDEX 01 00:00:00FILE "07 - The Legend.flac" WAVE TRACK 07 AUDIO TITLE "The Legend" PERFORMER "Carmine Coppola" INDEX 01 00:00:00FILE "08 - The Campfire.flac" WAVE TRACK 08 AUDIO TITLE "The Campfire" PERFORMER "Carmine Coppola" INDEX 01 00:00:00FILE "09 - The Ride.flac" WAVE TRACK 09 AUDIO TITLE "The Ride" PERFORMER "Carmine Coppola, Shirley Walker" INDEX 01 00:00:00FILE "10 - The Rescue.flac" WAVE TRACK 10 AUDIO TITLE "The Rescue" PERFORMER "Carmine Coppola, Shirley Walker, Nyle Steiner" INDEX 01 00:00:00FILE "11 - Dad's Glove and Watch.flac" WAVE TRACK 11 AUDIO TITLE "Dad's Glove and Watch" PERFORMER "Carmine Coppola" INDEX 01 00:00:00FILE "12 - Chase through Town.flac" WAVE TRACK 12 AUDIO TITLE "Chase through Town" PERFORMER "Carmine Coppola" INDEX 01 00:00:00FILE "13 - In Training.flac" WAVE TRACK 13 AUDIO TITLE "In Training" PERFORMER "Dick Rosmini" INDEX 01 00:00:00FILE "14 - Henry.flac" WAVE TRACK 14 AUDIO TITLE "Henry" PERFORMER "Carmine Coppola" INDEX 01 00:00:00FILE "15 - Flashback , Winner's Circle.flac" WAVE TRACK 15 AUDIO TITLE "Flashback & Winner's Circle" PERFORMER "Carmine Coppola" INDEX 01 00:00:00FILE "16 - Reprise - Theme from The Black Stallion.flac" WAVE TRACK 16 AUDIO TITLE "Reprise - Theme from The Black Stallion" PERFORMER "Carmine Coppola" INDEX 01 00:00:00
</div>
</div>
<div class="sp-wrap">
<div class="sp-head folded">CD 1</div>
<div class="sp-body">

[Verification date: 28.12.9 13:5:17][Disc ID: 00221cf7-01fbeadd-f80c3814]Track [ CRC ] Status 01 [b2d21a90] (03/03) Accurately ripped 02 [c46187ac] (03/03) Accurately ripped 03 [819ae26f] (03/03) Accurately ripped 04 [ac7b9718] (03/03) Accurately ripped 05 [dea795bb] (03/03) Accurately ripped 06 [c3ce3700] (03/03) Accurately ripped 07 [4f9a1e2a] (03/03) Accurately ripped 08 [ceb0c436] (03/03) Accurately ripped 09 [4f1f6a28] (03/03) Accurately ripped 10 [467a66dc] (03/03) Accurately ripped 11 [0041f448] (03/03) Accurately ripped 12 [9d838b9f] (03/03) Accurately ripped 13 [0f416108] (03/03) Accurately ripped 14 [cdbaa425] (03/03) Accurately ripped 15 [d4966c4f] (03/03) Accurately ripped 16 [f0efd79c] (03/03) Accurately ripped 17 [c6d11057] (03/03) Accurately ripped 18 [55624789] (03/03) Accurately ripped 19 [74701c95] (03/03) Accurately ripped 20 [8a3e70c4] (03/03) Accurately ripped

Track [ CRC32 ] [W/O NULL] [ LOG ] -- [0AF2ACD3] [37FD3C33] 01 [3F12D772] [588F9986] CRC32 02 [90C280BF] [A2DAC5AE] CRC32 03 [0759B37E] [5ED3EFE5] CRC32 04 [D926103B] [BAE0FECB] CRC32 05 [A444D7C4] [5F317157] CRC32 06 [08C59AD7] [F4538E6E] CRC32 07 [19C8DC90] [E2283DCA] CRC32 08 [951D054F] [BA5BCE0A] CRC32 09 [4E518BA5] [01B3CA05] CRC32 10 [A120539D] [45439566] CRC32 11 [5A7B41C0] [55212734] CRC32 12 [DF3DE11E] [78DB1360] CRC32 13 [1324CDCE] [1E4E59F8] CRC32 14 [3973AA5E] [2215B194] CRC32 15 [11E0EAB3] [9E2411F6] CRC32 16 [602AB91A] [E0115102] CRC32 17 [5D3E8271] [0DC59077] CRC32 18 [F5DE4E4E] [7C71C0C7] CRC32 19 [458F54B7] [AB511CA6] CRC32 20 [824464FD] [F1A25F9B] CRC32
[Verification date: 28.12.9 13:8:3][Disc ID: 001b2308-01971938-f6092414]Track [ CRC ] Status 01 [ac7ecd5a] (03/03) Accurately ripped 02 [877bb0f1] (03/03) Accurately ripped 03 [92afe2fc] (03/03) Accurately ripped 04 [2ceb8a3a] (03/03) Accurately ripped 05 [0f7ce2d9] (03/03) Accurately ripped 06 [0fbf2ded] (03/03) Accurately ripped 07 [25d479d6] (03/03) Accurately ripped 08 [fe4d04b5] (03/03) Accurately ripped 09 [4e11db0d] (03/03) Accurately ripped 10 [bbdadf4e] (03/03) Accurately ripped 11 [392621ee] (03/03) Accurately ripped 12 [6f9826c6] (03/03) Accurately ripped 13 [6004e977] (03/03) Accurately ripped 14 [e2061744] (03/03) Accurately ripped 15 [c3e8d226] (03/03) Accurately ripped 16 [35416da1] (03/03) Accurately ripped 17 [b32b4693] (03/03) Accurately ripped 18 [fcabdbcd] (03/03) Accurately ripped 19 [158233fe] (03/03) Accurately ripped 20 [4949429c] (03/03) Accurately ripped

Track [ CRC32 ] [W/O NULL] [ LOG ] -- [D0E05B97] [0CC6031B] 01 [69D95284] [44AEB5B4] CRC32 02 [87741013] [CC5FDC52] CRC32 03 [9F908C49] [5DDD68A1] CRC32 04 [020CB0E2] [6184CF97] CRC32 05 [E5E2C34E] [5AE576C1] CRC32 06 [292E8D5F] [767E2B37] CRC32 07 [2A71C70C] [7C9CCFAE] CRC32 08 [CC923ACB] [13D53BB9] CRC32 09 [DD121E59] [1EE0DCD3] CRC32 10 [E3F47333] [6497DAEB] CRC32 11 [FF729142] [0E59F22A] CRC32 12 [7D4EDFC0] [0B409A16] CRC32 13 [339CF8D8] [E4793D8E] CRC32 14 [7E949FE2] [9FC88C68] CRC32 15 [E87C158D] [8D0E844C] CRC32 16 [62DBC8D8] [F097C911] CRC32 17 [6DC4D4AB] [BF1B0B44] CRC32 18 [4136E846] [81B35CBE] CRC32 19 [7EDDE8D7] [0CCBD7B4] CRC32 20 [965A0707] [84D900D3] CRC32
[Verification date: 28.12.9 13:9:24][Disc ID: 001496ff-00f5682c-ce082f10]Track [ CRC ] Status 01 [80fd54d3] (03/03) Accurately ripped 02 [b4a1e8cd] (03/03) Accurately ripped 03 [41ebda77] (03/03) Accurately ripped 04 [cbbd38f7] (03/03) Accurately ripped 05 [524414df] (03/03) Accurately ripped 06 [55632223] (03/03) Accurately ripped 07 [c722aea2] (03/03) Accurately ripped 08 [397da191] (03/03) Accurately ripped 09 [2c831fd0] (03/03) Accurately ripped 10 [84bc769b] (03/03) Accurately ripped 11 [d9326eef] (03/03) Accurately ripped 12 [4f82c9ab] (03/03) Accurately ripped 13 [24c4f64d] (03/03) Accurately ripped 14 [879092b5] (03/03) Accurately ripped 15 [6f874612] (03/03) Accurately ripped 16 [fdef4b9f] (03/03) Accurately ripped

Track [ CRC32 ] [W/O NULL] [ LOG ] -- [13D86928] [4BC78BFF] 01 [C093A3D2] [61B132E2] CRC32 02 [CEB35B8A] [59D6439C] CRC32 03 [418BEFEE] [51D4FBAB] CRC32 04 [056E6180] [4E4400B0] CRC32 05 [073CCB70] [50E54114] CRC32 06 [872828E1] [1B4CBF31] CRC32 07 [534312FA] [FB4293DD] CRC32 08 [D5703059] [152BEAA1] CRC32 09 [246490B8] [A7655906] CRC32 10 [91AD0E93] [63DE7151] CRC32 11 [46AA1694] [7D3944C7] CRC32 12 [678D3BA2] [5F0CACEF] CRC32 13 [7453868A] [9D3492FE] CRC32 14 [0FA04452] [1AFB4616] CRC32 15 [793A2B8D] [4016EF39] CRC32 16 [1E2479F6] [0034AF33] CRC32
</div>
</div>
В раздачу входят сканы полиграфического оформления, включая 20-страничный буклет — JPEG, 300 dpi, 10.4 Мб.

Трекер:  [ 22-Май-2017 12:00 ]

  

Скачать .torrent

Размер .torrent файла 52 KB


Размер: 592 MB
Хэш (hash) релиза: 646ff6937f457f222eccd76a0f48ea3b3c2e2021

Торренты, похожие на Чёрный скакун Вороной жеребец скачать торрент

Форум Название Автор Размер S L Добавлен
Саундтреки к фильмам и мультфильмам (lossless) ·· (Score) Чёрный скакун / Вороной жеребец / The Black Stallion (1979) — Carmine Coppola & VA (Complete, 3 CD) — 2009, FLAC (tracks+.cue), lossless Комедиант 621026189592 MB 0 0 1296133259

16:00

27-Янв-11

Еще никто не оставлял запись к записи скачать торрент Чёрный скакун Вороной жеребец . Будь первым!

!Обратная связь