Скачать через торрент музыку Charles Bernstein, Christopher Young - A Nightmare on Elm Street Parts I & II Кошмар на улице вязов 1 & 2 - 1995, FLAC бесплатно без регистрации torrent

Если у вас наблюдаются проблемы со скриншотами, переходом по ссылками, скачиванием торрентов - проблемы в блокировщике рекламы AdBlock. #хорошегоДня!


Статистика раздачи
Размер:  321 MB   |    Зарегистрирован:  3 месяца 28 дней   |    .torrent скачан:  16 раз   |   
Раздают:  1  
   
Загрузка...
 
Автор Сообщение

Galfimbul

avatar Galfimbul


Charles Bernstein, Christopher Young - A Nightmare on Elm Street Parts I & II

Жанр: Score
Год выпуска диска: 1995
Производитель диска: Varese Sarabande
Аудио кодек: FLAC
Тип рипа: tracks+.cue
Битрейт аудио: lossless
Продолжительность: 1:04:29

Трэклист:
1. Prologue
2. Main Title -
3. Laying the Traps
4. Dream Attack
5. Rod Hanged/Night Stalking
6. Jail Cell
7. Confrontation
8. Sleep Clinic
9. Terror in the Tub
10. No Escape
11. School Horror/Stay Awake
12. Lurking
13. Telephone Terror
14. Fountain of Blood
15. Evil Freddy
16. Final Search
17. Run, Nancy!
18. Main Title -
19. ...And Leave the Driving to Us
20. Furnace Flare-Up
21. Kissing Freddy on the Catwalk
22. Chest-Burster
23. Jump Rope
24. Fire Bird
25. Dream Heat
26. Necromancer's Spell
27. Kill for Me
28. Sports Attack/Threatening Angela
29. Freed of Her
30. Snake-In-The-Class

Доп. информация: This disc contains the scores for the first two Nightmare films. Both are worthwhile, but Bernstein's score, with its sighing, whispering voices, and electric pounding heart sounds, is the more memorable of the two and the real reason this disc gets five stars. Young's score is a nice and creepy orchestral piece of work but, with the exception of an outstanding opening theme and the interesting use of what seems to be, of all things, whale song, is rather unmemorable. Especially in comparison to Bernstein's whopper of an opening. Nonetheless both are highly recommended treats for horror score fans.
Exact Audio Copy V0.99 prebeta 4 from 23. January 2008

EAC extraction logfile from 31. March 2009, 22:19

Charles Bernstein & Christopher Young / A Nightmare On Elm Street I & II

Used drive : Pioneer DVD-RW DVR-K17RS Adapter: 4 ID: 0

Read mode : SecureUtilize accurate stream : YesDefeat audio cache : YesMake use of C2 pointers : No

Read offset correction : 48Overread into Lead-In and Lead-Out : NoFill up missing offset samples with silence : YesDelete leading and trailing silent blocks : NoNull samples used in CRC calculations : YesUsed interface : Installed external ASPI interfaceGap handling : Appended to previous track

Used output format : Internal WAV RoutinesSample format : 44.100 Hz; 16 Bit; Stereo

TOC of the extracted CD

Track | Start | Length | Start sector | End sector --------------------------------------------------------- 1 | 0:00.00 | 0:35.50 | 0 | 2674 2 | 0:35.50 | 3:34.50 | 2675 | 18774 3 | 4:10.25 | 2:08.35 | 18775 | 28409 4 | 6:18.60 | 1:22.72 | 28410 | 34631 5 | 7:41.57 | 4:46.28 | 34632 | 56109 6 | 12:28.10 | 1:15.35 | 56110 | 61769 7 | 13:43.45 | 1:43.40 | 61770 | 69534 8 | 15:27.10 | 2:27.30 | 69535 | 80589 9 | 17:54.40 | 1:01.25 | 80590 | 85189 10 | 18:55.65 | 2:17.02 | 85190 | 95466 11 | 21:12.67 | 4:04.35 | 95467 | 113801 12 | 25:17.27 | 1:04.35 | 113802 | 118636 13 | 26:21.62 | 1:10.58 | 118637 | 123944 14 | 27:32.45 | 1:05.62 | 123945 | 128881 15 | 28:38.32 | 0:52.40 | 128882 | 132821 16 | 29:30.72 | 3:59.73 | 132822 | 150819 17 | 33:30.70 | 1:10.12 | 150820 | 156081 18 | 34:41.07 | 2:33.43 | 156082 | 167599 19 | 37:14.50 | 2:03.62 | 167600 | 176886 20 | 39:18.37 | 2:19.23 | 176887 | 187334 21 | 41:37.60 | 3:23.50 | 187335 | 202609 22 | 45:01.35 | 3:55.20 | 202610 | 220254 23 | 48:56.55 | 1:47.40 | 220255 | 228319 24 | 50:44.20 | 3:14.05 | 228320 | 242874 25 | 53:58.25 | 1:13.07 | 242875 | 248356 26 | 55:11.32 | 2:33.15 | 248357 | 259846 27 | 57:44.47 | 2:37.55 | 259847 | 271676 28 | 60:22.27 | 2:37.58 | 271677 | 283509 29 | 63:00.10 | 1:31.17 | 283510 | 290351 30 | 64:31.27 | 0:56.20 | 290352 | 294571

Track 1

Filename D:\Music\EAC\01 - Prologue.wav

Pre-gap length 0:00:02.00

Peak level 51.9 % Track quality 100.0 % Test CRC 79C7C241 Copy CRC 79C7C241 Copy OK

Track 2

Filename D:\Music\EAC\02 - Main Title.wav

Peak level 63.7 % Track quality 100.0 % Test CRC 246F631F Copy CRC 246F631F Copy OK

Track 3

Filename D:\Music\EAC\03 - Laying The Traps.wav

Peak level 71.7 % Track quality 100.0 % Test CRC 7BA75734 Copy CRC 7BA75734 Copy OK

Track 4

Filename D:\Music\EAC\04 - Dream Attack.wav

Pre-gap length 0:00:00.21

Peak level 71.6 % Track quality 100.0 % Test CRC 1CD63BE0 Copy CRC 1CD63BE0 Copy OK

Track 5

Filename D:\Music\EAC\05 - Rod Hanged, Night Stalking.wav

Pre-gap length 0:00:01.42

Peak level 76.9 % Track quality 100.0 % Test CRC 7FCA28CF Copy CRC 7FCA28CF Copy OK

Track 6

Filename D:\Music\EAC\06 - Jail Cell.wav

Pre-gap length 0:00:00.51

Peak level 74.7 % Track quality 100.0 % Test CRC 8854C3F5 Copy CRC 8854C3F5 Copy OK

Track 7

Filename D:\Music\EAC\07 - Confrontation.wav

Pre-gap length 0:00:01.07

Peak level 51.1 % Track quality 100.0 % Test CRC CBB849B3 Copy CRC CBB849B3 Copy OK

Track 8

Filename D:\Music\EAC\08 - Sleep Clinic.wav

Peak level 58.8 % Track quality 99.9 % Test CRC 9A25CC5F Copy CRC 9A25CC5F Copy OK

Track 9

Filename D:\Music\EAC\09 - Terror In The Tub.wav

Pre-gap length 0:00:00.65

Peak level 75.8 % Track quality 100.0 % Test CRC 9B17E09A Copy CRC 9B17E09A Copy OK

Track 10

Filename D:\Music\EAC\10 - No Escape.wav

Peak level 73.1 % Track quality 100.0 % Test CRC 2EB0AA9E Copy CRC 2EB0AA9E Copy OK

Track 11

Filename D:\Music\EAC\11 - School Horror, Stay Awake.wav

Pre-gap length 0:00:00.41

Peak level 35.1 % Track quality 100.0 % Test CRC 62287DA3 Copy CRC 62287DA3 Copy OK

Track 12

Filename D:\Music\EAC\12 - Lurking.wav

Pre-gap length 0:00:00.02

Peak level 39.1 % Track quality 100.0 % Test CRC F80A8826 Copy CRC F80A8826 Copy OK

Track 13

Filename D:\Music\EAC\13 - Telephone Terror.wav

Peak level 58.7 % Track quality 100.0 % Test CRC BF4BADE8 Copy CRC BF4BADE8 Copy OK

Track 14

Filename D:\Music\EAC\14 - Fountain Of Blood.wav

Pre-gap length 0:00:00.60

Peak level 78.7 % Track quality 100.0 % Test CRC FB203109 Copy CRC FB203109 Copy OK

Track 15

Filename D:\Music\EAC\15 - Evil Freddy.wav

Peak level 49.5 % Track quality 100.0 % Test CRC FCB59E2A Copy CRC FCB59E2A Copy OK

Track 16

Filename D:\Music\EAC\16 - Final Search.wav

Peak level 46.8 % Track quality 100.0 % Test CRC 47A085E3 Copy CRC 47A085E3 Copy OK

Track 17

Filename D:\Music\EAC\17 - Run, Nancy.wav

Peak level 69.0 % Track quality 100.0 % Test CRC 4C561F5D Copy CRC 4C561F5D Copy OK

Track 18

Filename D:\Music\EAC\18 - Main Title.wav

Pre-gap length 0:00:00.57

Peak level 24.4 % Track quality 100.0 % Test CRC 44CAAB39 Copy CRC 44CAAB39 Copy OK

Track 19

Filename D:\Music\EAC\19 - ...And Leave The Driving to Us.wav

Peak level 68.6 % Track quality 100.0 % Test CRC B18ECBD6 Copy CRC B18ECBD6 Copy OK

Track 20

Filename D:\Music\EAC\20 - Furnace Flare-Up.wav

Pre-gap length 0:00:00.10

Peak level 28.8 % Track quality 100.0 % Test CRC E82FBC68 Copy CRC E82FBC68 Copy OK

Track 21

Filename D:\Music\EAC\21 - Kissing Freddy On The Catwalk.wav

Pre-gap length 0:00:00.46

Peak level 51.8 % Track quality 100.0 % Test CRC 23042956 Copy CRC 23042956 Copy OK

Track 22

Filename D:\Music\EAC\22 - Chest-Burster.wav

Peak level 59.7 % Track quality 100.0 % Test CRC 3A999731 Copy CRC 3A999731 Copy OK

Track 23

Filename D:\Music\EAC\23 - Jump Rope.wav

Peak level 29.1 % Track quality 100.0 % Test CRC D356F3C7 Copy CRC D356F3C7 Copy OK

Track 24

Filename D:\Music\EAC\24 - Fire Bird.wav

Peak level 69.6 % Track quality 100.0 % Test CRC DFFFF3FA Copy CRC DFFFF3FA Copy OK

Track 25

Filename D:\Music\EAC\25 - Dream Heat.wav

Peak level 46.3 % Track quality 100.0 % Test CRC 299BFF5A Copy CRC 299BFF5A Copy OK

Track 26

Filename D:\Music\EAC\26 - Necromancer's Spell.wav

Pre-gap length 0:00:00.71

Peak level 36.3 % Track quality 100.0 % Test CRC EC17DA21 Copy CRC EC17DA21 Copy OK

Track 27

Filename D:\Music\EAC\27 - 'Kill For Me'.wav

Pre-gap length 0:00:01.04

Peak level 39.4 % Track quality 99.9 % Test CRC E1E49D9F Copy CRC E1E49D9F Copy OK

Track 28

Filename D:\Music\EAC\28 - Sports Attack, Threatening Angela.wav

Peak level 77.9 % Track quality 100.0 % Test CRC B1157B92 Copy CRC B1157B92 Copy OK

Track 29

Filename D:\Music\EAC\29 - Freed Of Her.wav

Pre-gap length 0:00:01.14

Peak level 49.7 % Track quality 100.0 % Test CRC 489322C9 Copy CRC 489322C9 Copy OK

Track 30

Filename D:\Music\EAC\30 - Snake-In-The-Class.wav

Peak level 76.7 % Track quality 100.0 % Test CRC 6D9C8DA8 Copy CRC 6D9C8DA8 Copy OK

No errors occurred

End of status report


Трекер:  [ 22-Май-2017 12:00 ]

  

Скачать .torrent

Размер .torrent файла 28 KB


Размер: 321 MB
Хэш (hash) релиза: 0646ac8227b1c61ac98608e8688cbb7d37b0225b

Еще никто не оставлял запись к записи скачать торрент Charles Bernstein, Christopher Young - A Nightmare on Elm Street Parts I & II Кошмар на улице вязов 1 & 2 - 1995, FLAC . Будь первым!

!Обратная связь