Скачать через торрент музыку Морпехи Jarhead бесплатно без регистрации torrent

Если у вас наблюдаются проблемы со скриншотами, переходом по ссылками, скачиванием торрентов - проблемы в блокировщике рекламы AdBlock. #хорошегоДня!


Статистика раздачи
Размер:  340 MB   |    Зарегистрирован:  3 месяца 28 дней   |    .torrent скачан:  13 раз   |   
Раздают:  1  
   
Загрузка...
 
Автор Сообщение

Galfimbul

avatar Galfimbul


JarheadThomas Newman
Другие исполнители на этом альбоме:
Bobby McFerrin
— композиция Don't Worry, Be Happy
T-Rex
— композиция Bang a Gong (Get It On)
Naughty By Nature
— композиция O.P.P.
Public Enemy
— композиция Fight The Power
Tom Waits
— композиция Soldier's Things
Жанр: Score
Год выпуска диска: 2006
Производитель диска: Россия (Юниверсал Мьюзик)
Аудио кодек: FLAC
Тип рипа: tracks+.cue
Битрейт аудио: lossless
Продолжительность: 1:01:34
01. Welcome to the Suck 1:25
02. Raining Oil 2:19
03. Battery Run 1:14
04. Mirage Bedouin 1:34
05. Bobby McFerrin — Don't Worry Be Happy 4:51
06. No Standard Solution 1:03
07. 8 Men 5 Camels 1:33
08. Full Chemical Gear 2:02
09. Unsick Most Ricky-Tick 1:28
10. Morning Glory 1:32
11. T-Rex — Bang a Gong (Get It On) 4:26
12. Desert Storm 1:54
13. Desert Sunrise 1:45
14. Zoomies 2:17
15. Horse 1:31
16. Pink Mist 2:15
17. Jarhead for Life 1:29
18. Naughty By Nature — O.P.P. 4:31
19. Dickskinner 3:35
20. Permission to Fire 4:54
21. Dead Anyway 2:05
22. Scuds 3:00
23. Listen Up 1:43
24. Public Enemy — Fight the Power 3:48
25. Tom Waits — Soldier's Things 3:19
Exact Audio Copy V0.99 prebeta 4 from 23. January 2008

EAC extraction logfile from 23. September 2009, 21:53

Thomas Newman / Jarhead

Used drive : TOSHIBA CDW/DVD SD-R1612 Adapter: 3 ID: 0

Read mode : SecureUtilize accurate stream : YesDefeat audio cache : YesMake use of C2 pointers : No

Read offset correction : 6Overread into Lead-In and Lead-Out : NoFill up missing offset samples with silence : YesDelete leading and trailing silent blocks : NoNull samples used in CRC calculations : YesUsed interface : Native Win32 interface for Win NT & 2000Gap handling : Appended to previous track

Used output format : Internal WAV RoutinesSample format : 44.100 Hz; 16 Bit; Stereo

TOC of the extracted CD

Track | Start | Length | Start sector | End sector --------------------------------------------------------- 1 | 0:00.00 | 1:25.15 | 0 | 6389 2 | 1:25.15 | 2:18.57 | 6390 | 16796 3 | 3:43.72 | 1:14.33 | 16797 | 22379 4 | 4:58.30 | 1:33.43 | 22380 | 29397 5 | 6:31.73 | 4:50.74 | 29398 | 51221 6 | 11:22.72 | 1:03.04 | 51222 | 55950 7 | 12:26.01 | 1:32.54 | 55951 | 62904 8 | 13:58.55 | 2:01.54 | 62905 | 72033 9 | 16:00.34 | 1:27.72 | 72034 | 78630 10 | 17:28.31 | 1:32.16 | 78631 | 85546 11 | 19:00.47 | 4:26.34 | 85547 | 105530 12 | 23:27.06 | 1:54.12 | 105531 | 114092 13 | 25:21.18 | 1:44.39 | 114093 | 121931 14 | 27:05.57 | 2:17.25 | 121932 | 132231 15 | 29:23.07 | 1:30.54 | 132232 | 139035 16 | 30:53.61 | 2:15.37 | 139036 | 149197 17 | 33:09.23 | 1:28.61 | 149198 | 155858 18 | 34:38.09 | 4:30.63 | 155859 | 176171 19 | 39:08.72 | 3:35.01 | 176172 | 192297 20 | 42:43.73 | 4:54.13 | 192298 | 214360 21 | 47:38.11 | 2:05.31 | 214361 | 223766 22 | 49:43.42 | 3:00.24 | 223767 | 237290 23 | 52:43.66 | 1:42.64 | 237291 | 245004 24 | 54:26.55 | 3:48.24 | 245005 | 262128 25 | 58:15.04 | 3:18.64 | 262129 | 277042

Track 1

Filename V:\EAX\01 - Welcome to the Suck.wav

Pre-gap length 0:00:02.00

Peak level 98.8 % Track quality 100.0 % Test CRC 799B50EF Copy CRC 799B50EF Copy OK

Track 2

Filename V:\EAX\02 - Raining Oil.wav

Peak level 88.0 % Track quality 100.0 % Test CRC 8786C828 Copy CRC 8786C828 Copy OK

Track 3

Filename V:\EAX\03 - Battery Run.wav

Peak level 93.3 % Track quality 100.0 % Test CRC F30FADA5 Copy CRC F30FADA5 Copy OK

Track 4

Filename V:\EAX\04 - Mirage Bedouin.wav

Peak level 35.9 % Track quality 99.6 % Test CRC 9214CBF4 Copy CRC 9214CBF4 Copy OK

Track 5

Filename V:\EAX\05 - Bobby McFerrin - Don't Worry Be Happy.wav

Peak level 65.9 % Track quality 100.0 % Test CRC AABACBAF Copy CRC AABACBAF Copy OK

Track 6

Filename V:\EAX\06 - No Standard Solution.wav

Peak level 98.8 % Track quality 100.0 % Test CRC A320BEBB Copy CRC A320BEBB Copy OK

Track 7

Filename V:\EAX\07 - 8 Men 5 Camels.wav

Peak level 29.8 % Track quality 100.0 % Test CRC BC964ED1 Copy CRC BC964ED1 Copy OK

Track 8

Filename V:\EAX\08 - Full Chemical Gear.wav

Peak level 98.8 % Track quality 100.0 % Test CRC B635A879 Copy CRC B635A879 Copy OK

Track 9

Filename V:\EAX\09 - Unsick Most Ricky-Tick.wav

Pre-gap length 0:00:01.23

Peak level 98.8 % Track quality 100.0 % Test CRC DCDABF93 Copy CRC DCDABF93 Copy OK

Track 10

Filename V:\EAX\10 - Morning Glory.wav

Pre-gap length 0:00:01.15

Peak level 98.8 % Track quality 100.0 % Test CRC 03B8887A Copy CRC 03B8887A Copy OK

Track 11

Filename V:\EAX\11 - T-Rex - Bang a Gong (Get It On).wav

Peak level 83.1 % Track quality 99.9 % Test CRC 2EE90BE7 Copy CRC 2EE90BE7 Copy OK

Track 12

Filename V:\EAX\12 - Desert Storm.wav

Pre-gap length 0:00:02.27

Peak level 98.8 % Track quality 100.0 % Test CRC 5E7D2C73 Copy CRC 5E7D2C73 Copy OK

Track 13

Filename V:\EAX\13 - Desert Sunrise.wav

Peak level 87.4 % Track quality 100.0 % Test CRC 1BA10D13 Copy CRC 1BA10D13 Copy OK

Track 14

Filename V:\EAX\14 - Zoomies.wav

Peak level 98.8 % Track quality 100.0 % Test CRC 6C8BAD22 Copy CRC 6C8BAD22 Copy OK

Track 15

Filename V:\EAX\15 - Horse.wav

Peak level 92.8 % Track quality 100.0 % Test CRC 0C57EFF9 Copy CRC 0C57EFF9 Copy OK

Track 16

Filename V:\EAX\16 - Pink Mist.wav

Peak level 98.8 % Track quality 99.9 % Test CRC 02D2C34B Copy CRC 02D2C34B Copy OK

Track 17

Filename V:\EAX\17 - Jarhead for Life.wav

Pre-gap length 0:00:01.68

Peak level 98.8 % Track quality 100.0 % Test CRC 8C0AB26E Copy CRC 8C0AB26E Copy OK

Track 18

Filename V:\EAX\18 - Naughty By Nature - O.P.P.wav

Peak level 65.9 % Track quality 100.0 % Test CRC 67F684C3 Copy CRC 67F684C3 Copy OK

Track 19

Filename V:\EAX\19 - Dickskinner.wav

Pre-gap length 0:00:01.10

Peak level 98.8 % Track quality 100.0 % Test CRC 57E2E3CB Copy CRC 57E2E3CB Copy OK

Track 20

Filename V:\EAX\20 - Permission to Fire.wav

Pre-gap length 0:00:01.05

Peak level 98.8 % Track quality 99.9 % Test CRC 90BCC262 Copy CRC 90BCC262 Copy OK

Track 21

Filename V:\EAX\21 - Dead Anyway.wav

Peak level 41.3 % Track quality 100.0 % Test CRC E9EC232C Copy CRC E9EC232C Copy OK

Track 22

Filename V:\EAX\22 - Scuds.wav

Pre-gap length 0:00:01.12

Peak level 98.8 % Track quality 99.9 % Test CRC 6E059FE0 Copy CRC 6E059FE0 Copy OK

Track 23

Filename V:\EAX\23 - Listen Up.wav

Peak level 98.8 % Track quality 100.0 % Test CRC C2427720 Copy CRC C2427720 Copy OK

Track 24

Filename V:\EAX\24 - Public Enemy - Fight the Power.wav

Pre-gap length 0:00:04.06

Peak level 69.9 % Track quality 100.0 % Test CRC A7291B6D Copy CRC A7291B6D Copy OK

Track 25

Filename V:\EAX\25 - Tom Waits - Soldier's Things.wav

Pre-gap length 0:00:04.08

Peak level 98.6 % Track quality 100.0 % Test CRC DAA8FB5C Copy CRC DAA8FB5C Copy OK

No errors occurred

End of status report
[Verification date: 25.9.9 4:59:22]
[Disc ID: 00313e42-038d5c78-670e6d19]
HDCD: peak extend: none, transient filter: none, gain: none
Track [ CRC    ] Status
01    [b51bcba2] (00/08) No matches
02    [93f97930] (00/08) No matches
03    [f1e1b570] (00/08) No matches
04    [6fa0ee63] (00/08) No matches
05    [e05ed511] (00/08) No matches
06    [29a14907] (00/08) No matches
07    [e2ba52f0] (00/08) No matches
08    [1ac2b602] (00/07) No matches
09    [a459f94a] (00/08) No matches
10    [4f379e16] (00/08) No matches
11    [f334229f] (00/08) No matches
12    [c9298129] (00/08) No matches
13    [bc4bf9d1] (00/07) No matches
14    [de076c50] (00/08) No matches
15    [8eaf270e] (00/08) No matches
16    [328d6c48] (00/08) No matches
17    [2d1b4f65] (00/08) No matches
18    [2b1ff4b6] (00/08) No matches
19    [b3702c4f] (00/08) No matches
20    [c003157f] (00/07) No matches
21    [97da79b9] (00/08) No matches
22    [67ca60b8] (00/08) No matches
23    [1150cc25] (00/08) No matches
24    [c16e281a] (00/08) No matches
25    [27019a31] (00/08) No matches
Offsetted by 664:
01    [61336013] (08/08) Accurately ripped as in pressing(s) #1
02    [5ebae709] (08/08) Accurately ripped as in pressing(s) #1
03    [02b9dc5e] (08/08) Accurately ripped as in pressing(s) #1
04    [218831ac] (08/08) Accurately ripped as in pressing(s) #1
05    [d49660c3] (08/08) Accurately ripped as in pressing(s) #1
06    [77eaac7a] (08/08) Accurately ripped as in pressing(s) #1
07    [c520804e] (08/08) Accurately ripped as in pressing(s) #1
08    [950c9e8c] (07/07) Accurately ripped as in pressing(s) #1
09    [9fc10f4b] (08/08) Accurately ripped as in pressing(s) #1
10    [fd41d8c3] (08/08) Accurately ripped as in pressing(s) #1
11    [197bef79] (08/08) Accurately ripped as in pressing(s) #1
12    [d1d99bb1] (08/08) Accurately ripped as in pressing(s) #1
13    [4414f639] (07/07) Accurately ripped as in pressing(s) #1
14    [7e3cc972] (08/08) Accurately ripped as in pressing(s) #1
15    [f334472d] (08/08) Accurately ripped as in pressing(s) #1
16    [d2a8ea00] (08/08) Accurately ripped as in pressing(s) #1
17    [40da5908] (08/08) Accurately ripped as in pressing(s) #1
18    [7daf36e7] (08/08) Accurately ripped as in pressing(s) #1
19    [0847e7cc] (08/08) Accurately ripped as in pressing(s) #1
20    [61b8d305] (07/07) Accurately ripped as in pressing(s) #1
21    [e9c1508a] (08/08) Accurately ripped as in pressing(s) #1
22    [0b0c23ac] (08/08) Accurately ripped as in pressing(s) #1
23    [b1898216] (08/08) Accurately ripped as in pressing(s) #1
24    [81f51390] (08/08) Accurately ripped as in pressing(s) #1
25    [fa61e938] (08/08) Accurately ripped as in pressing(s) #1

Track [ CRC32  ] [W/O NULL]
--    [81B73FCC] [C17355BE]
01    [799B50EF] [E5E46361]
02    [8786C828] [69028343]
03    [F30FADA5] [39199D46]
04    [9214CBF4] [8430BD5E]
05    [AABACBAF] [996FCF78]
06    [A320BEBB] [CB080C35]
07    [BC964ED1] [82711959]
08    [B635A879] [15F6AFF7]
09    [DCDABF93] [BCF4BE6E]
10    [03B8887A] [B13E809D]
11    [2EE90BE7] [83434E9B]
12    [5E7D2C73] [BA90ACE1]
13    [1BA10D13] [8062A5EE]
14    [6C8BAD22] [FBA406C4]
15    [0C57EFF9] [1059062F]
16    [02D2C34B] [DAF13574]
17    [8C0AB26E] [D153AEA7]
18    [67F684C3] [86BAF488]
19    [57E2E3CB] [A96754CB]
20    [90BCC262] [D3558A93]
21    [E9EC232C] [AE5DF3E2]
22    [6E059FE0] [05EA5F37]
23    [C2427720] [9F8CDEAA]
24    [A7291B6D] [03508FBA]
25    [DAA8FB5C] [7CDB463B]


Трекер:  [ 22-Май-2017 12:00 ]

  

Скачать .torrent

Размер .torrent файла 29 KB


Размер: 340 MB
Хэш (hash) релиза: 4b837b4029e953514d860b12d571fe5ef5c4825e

Торренты, похожие на Морпехи Jarhead скачать торрент

Форум Название Автор Размер S L Добавлен
Саундтреки к фильмам и мультфильмам (lossless) ·· (Score) Морпехи / Jarhead (2005) — Thomas Newman & Public Enemy & Tom Waits & VA — 2006, FLAC (tracks+.cue), lossless Galfimbul 356370695340 MB 0 0 1292270313

22:58

13-Дек-10

Еще никто не оставлял запись к записи скачать торрент Морпехи Jarhead . Будь первым!

!Обратная связь