Скачать через торрент музыку The Draughtsmans Contract | Контракт рисовальщика бесплатно без регистрации torrent

Если у вас наблюдаются проблемы со скриншотами, переходом по ссылками, скачиванием торрентов - проблемы в блокировщике рекламы AdBlock. #хорошегоДня!


Статистика раздачи
Размер:  246 MB   |    Зарегистрирован:  6 месяцев   |    .torrent скачан:  15 раз   |   
Раздают:  1  
   
Загрузка...
 
Автор Сообщение

Galfimbul

avatar Galfimbul


The Draughtsman's Contract | Контракт рисовальщика
Жанр: Score
Год выпуска диска: 1989
Производитель диска: Virgin Records, USA
Аудио кодек: FLAC
Тип рипа: image+.cue
Битрейт аудио: lossless
Продолжительность: 40'40"
Трэклист:
1. Chasing Sheep is Best Left to Shepherds
2. The Disposition of the Linen
3. A Watery Death
4. The Garden is Becoming a Robe Room
5. Queen of the Night
6. An Eye for Optical Theory
7. Bravura in the Face of Grief
Exact Audio Copy V0.99 prebeta 5 from 4. May 2009

Отчёт EAC об извлечении, выполненном 16. сентября 2009, 2:02

Michael Nyman / The Draughtman's Contract

Дисковод: Optiarc DVD RW AD-7203A Adapter: 4 ID: 1

Режим чтения : ДостоверностьИспользование точного потока : ДаОтключение кэша аудио : ДаИспользование указателей C2 : Нет

Коррекция смещения при чтении : 48Способность читать области Lead-in и Lead-out : НетЗаполнение пропущенных сэмплов тишиной : ДаУдаление блоков с тишиной в начале и конце : НетПри вычислениях CRC использовались нулевые сэмплы : ДаИнтерфейс : Встроенный Win32-интерфейс для Win NT/2000

Выходной формат : Пользовательский кодировщикВыбранный битрейт : 128 kBit/sКачество : ВысокийДобавление ID3-тэга : НетУтилита сжатия : C:\Program Files\FLAC\flac.exeДополнительные параметры : -5 -V %s

TOC извлечённого CD

Трек | Старт | Длительность | Начальный сектор | Конечный сектор --------------------------------------------------------------------- 1 | 0:00.25 | 2:35.07 | 25 | 11656 2 | 2:35.32 | 4:49.18 | 11657 | 33349 3 | 7:24.50 | 3:33.72 | 33350 | 49396 4 | 10:58.47 | 6:06.53 | 49397 | 76899 5 | 17:05.25 | 6:09.70 | 76900 | 104644 6 | 23:15.20 | 5:12.27 | 104645 | 128071 7 | 28:27.47 | 12:13.28 | 128072 | 183074

Характеристики диапазона извлечения и сообщения об ошибках

Выбранный диапазон

Имя файла D:\EAC\Michael Nyman - The Draughtman's Contract.wav

Пиковый уровень 100.0 % Качество диапазона 99.9 % CRC теста 4DE8B2D6 CRC копии 4DE8B2D6 Копирование... OK

Ошибок не произошло

AccurateRip: сводка

Трек 1 точность не определена (достоверность 1) [7574A13C], AccurateRip вернул [0E9EFB12]Трек 2 точность не определена (достоверность 1) [97E6802C], AccurateRip вернул [04CFD057]Трек 3 точность не определена (достоверность 1) [6F8D6AE3], AccurateRip вернул [A12924CF]Трек 4 точность не определена (достоверность 1) [ECFED5A4], AccurateRip вернул [68D93BAF]Трек 5 точность не определена (достоверность 1) [FFF93252], AccurateRip вернул [39569D8E]Трек 6 точность не определена (достоверность 1) [77D4BE35], AccurateRip вернул [B4EB5C28]Трек 7 точность не определена (достоверность 1) [0A01A9E2], AccurateRip вернул [C611D327]

Ни один трек не прошёл проверки на точностьВ вашей базе может быть иной вариант штамповки диска

Конец отчёта


Трекер:  [ 22-Май-2017 12:00 ]

  

Скачать .torrent

Размер .torrent файла 20 KB


Размер: 246 MB
Хэш (hash) релиза: 85cd539c7db48e839b62bbe4b16f0b487f4f7031

Торренты, похожие на The Draughtsmans Contract | Контракт рисовальщика скачать торрент

Форум Название Автор Размер S L Добавлен
Саундтреки к фильмам и мультфильмам (lossless) ·· (Score) The Draughtsman's Contract | Контракт рисовальщика (Michael Nyman) - 1989, FLAC (image+.cue), lossless Galfimbul 258182687246 MB 0 0 1292268847

22:34

13-Дек-10

Еще никто не оставлял запись к записи скачать торрент The Draughtsmans Contract | Контракт рисовальщика . Будь первым!

!Обратная связь