Скачать через торрент музыку Девять Nine бесплатно без регистрации torrent

Если у вас наблюдаются проблемы со скриншотами, переходом по ссылками, скачиванием торрентов - проблемы в блокировщике рекламы AdBlock. #хорошегоДня!


Статистика раздачи
Размер:  350 MB   |    Зарегистрирован:  6 месяцев   |    .torrent скачан:  12 раз   |   
Раздают:  1  
   
Загрузка...
 
Автор Сообщение

Galfimbul

avatar Galfimbul


Nine
Жанр
: Soundtrack
Год выпуска диска: 2009
Производитель диска: США (Geffen Records)
Аудио кодек: FLAC
Тип рипа: tracks+.cue
Битрейт аудио: lossless
Продолжительность: 0:57:42
Треклист
:

01. Female Ensemble — Overture Delle Donne 4:07
02. Daniel Day-Lewis — Guido's Song 3:42
03. Penélope Cruz — A Call from the Vatican 3:40
04. Judi Dench — Folies Bergere 4:42
05. Fergie — Be Italian 4:12
06. Marion Cotillard — My Husband Makes Movies 4:49
07. Kate Hudson — Cinema Italiano 3:14
08. Sophia Loren — Guarda La Luna 3:11
09. Nicole Kidman — Unusual Way 3:26
10. Marion Cotillard — Take It All 3:03
11. Daniel Day-Lewis — I Can't Make This Movie 2:11
12. The Cast — Finale 3:36
13. Fergie — Quando Quando Quando 3:16
14. Noisettes — Io Bacio... Tu Baci 3:25
15. Kate Hudson — Cinema Italiano (The Ron Fair Remix) 3:26
16. Griffith Frank — Unusual Way 3:42
Для публикации на форуме в логе урезаны пути файлов, внутри раздачи — оригинальный лог без изменений.

X Lossless Decoder version 20091230 (115.2)

XLD extraction logfile from 2009-12-30 14:56:33 -0500

Various Artists / Nine

Used drive : HL-DT-ST DVDRW GS23N (revision SB03)

Use cdparanoia mode : YES (CDParanoia III 10.2 engine)Disable audio cache : OK for the drive with cache less than 2750KBMake use of C2 pointers : NORead offset correction : 667Max retry count : 100

TOC of the extracted CD Track | Start | Length | Start sector | End sector --------------------------------------------------------- 1 | 00:00:00 | 04:06:67 | 0 | 18516 2 | 04:06:67 | 03:42:11 | 18517 | 35177 3 | 07:49:03 | 03:40:21 | 35178 | 51698 4 | 11:29:24 | 04:42:34 | 51699 | 72882 5 | 16:11:58 | 04:12:17 | 72883 | 91799 6 | 20:24:00 | 04:48:40 | 91800 | 113439 7 | 25:12:40 | 03:13:50 | 113440 | 127964 8 | 28:26:15 | 03:11:06 | 127965 | 142295 9 | 31:37:21 | 03:26:09 | 142296 | 157754 10 | 35:03:30 | 03:03:22 | 157755 | 171501 11 | 38:06:52 | 02:11:24 | 171502 | 181350 12 | 40:18:01 | 03:35:40 | 181351 | 197515 13 | 43:53:41 | 03:15:66 | 197516 | 212206 14 | 47:09:32 | 03:24:50 | 212207 | 227556 15 | 50:34:07 | 03:25:56 | 227557 | 242987 16 | 53:59:63 | 03:41:74 | 242988 | 259636

All Tracks Album gain : -7.82 dB Peak : 1.000000

Track 01 Filename : /../Various Artists - Nine (FLAC)/01 Female Ensemble - Overture Delle Donne.flac

Pre-gap length : 00:02:00

Track gain : -7.61 dB Peak : 0.963043 CRC32 hash (test run) : 4A933A99 CRC32 hash : 4A933A99 CRC32 hash (skip zero) : A8CC8399 AccurateRip signature : 0065FB23 ->Track not present in AccurateRip database. Statistics Read error : 0 Skipped (treated as error) : 0 Edge jitter error (maybe fixed) : 0 Atom jitter error (maybe fixed) : 0 Drift error (maybe fixed) : 0 Dropped bytes error (maybe fixed) : 0 Duplicated bytes error (maybe fixed) : 0 Inconsistency in error sectors : 0

Track 02 Filename : /../Various Artists - Nine (FLAC)/02 Daniel Day-Lewis - Guido's Song.flac

Pre-gap length : 00:00:20

Track gain : -6.76 dB Peak : 0.976196 CRC32 hash (test run) : 54CE6701 CRC32 hash : 54CE6701 CRC32 hash (skip zero) : 727D88A4 AccurateRip signature : 11334C0A ->Track not present in AccurateRip database. Statistics Read error : 0 Skipped (treated as error) : 0 Edge jitter error (maybe fixed) : 0 Atom jitter error (maybe fixed) : 0 Drift error (maybe fixed) : 0 Dropped bytes error (maybe fixed) : 0 Duplicated bytes error (maybe fixed) : 0 Inconsistency in error sectors : 0

Track 03 Filename : /../Various Artists - Nine (FLAC)/03 Penelope Cruz - A Call From the Vatican.flac

Pre-gap length : 00:00:50

Track gain : -7.17 dB Peak : 0.999969 CRC32 hash (test run) : E2BAC609 CRC32 hash : E2BAC609 CRC32 hash (skip zero) : E312F2F4 AccurateRip signature : 7ACFAD2E ->Track not present in AccurateRip database. Statistics Read error : 0 Skipped (treated as error) : 0 Edge jitter error (maybe fixed) : 0 Atom jitter error (maybe fixed) : 0 Drift error (maybe fixed) : 0 Dropped bytes error (maybe fixed) : 0 Duplicated bytes error (maybe fixed) : 0 Inconsistency in error sectors : 0

Track 04 Filename : /../Various Artists - Nine (FLAC)/04 Judie Dench - Folies Bergere.flac

Pre-gap length : 00:00:19

Track gain : -8.46 dB Peak : 0.971802 CRC32 hash (test run) : 9048CF79 CRC32 hash : 9048CF79 CRC32 hash (skip zero) : 22CE610D AccurateRip signature : CDB5826B ->Track not present in AccurateRip database. Statistics Read error : 0 Skipped (treated as error) : 0 Edge jitter error (maybe fixed) : 0 Atom jitter error (maybe fixed) : 0 Drift error (maybe fixed) : 0 Dropped bytes error (maybe fixed) : 0 Duplicated bytes error (maybe fixed) : 0 Inconsistency in error sectors : 0

Track 05 Filename : /../Various Artists - Nine (FLAC)/05 Fergie - Be Italian.flac

Track gain : -6.97 dB Peak : 0.999969 CRC32 hash (test run) : 4FCCE532 CRC32 hash : 4FCCE532 CRC32 hash (skip zero) : E9F11F2B AccurateRip signature : 971655C9 ->Track not present in AccurateRip database. Statistics Read error : 0 Skipped (treated as error) : 0 Edge jitter error (maybe fixed) : 0 Atom jitter error (maybe fixed) : 0 Drift error (maybe fixed) : 0 Dropped bytes error (maybe fixed) : 0 Duplicated bytes error (maybe fixed) : 0 Inconsistency in error sectors : 0

Track 06 Filename : /../Various Artists - Nine (FLAC)/06 Marion Cotillard - My Husband Makes Movies.flac

Pre-gap length : 00:00:26

Track gain : -6.68 dB Peak : 0.971313 CRC32 hash (test run) : 30502AC0 CRC32 hash : 30502AC0 CRC32 hash (skip zero) : 3E79C60F AccurateRip signature : 223D9705 ->Track not present in AccurateRip database. Statistics Read error : 0 Skipped (treated as error) : 0 Edge jitter error (maybe fixed) : 0 Atom jitter error (maybe fixed) : 0 Drift error (maybe fixed) : 0 Dropped bytes error (maybe fixed) : 0 Duplicated bytes error (maybe fixed) : 0 Inconsistency in error sectors : 0

Track 07 Filename : /../Various Artists - Nine (FLAC)/07 Kate Hudson - Cinema Italiano.flac

Pre-gap length : 00:00:06

Track gain : -8.32 dB Peak : 1.000000 CRC32 hash (test run) : 92B37323 CRC32 hash : 92B37323 CRC32 hash (skip zero) : 2C637995 AccurateRip signature : C63D47F9 ->Track not present in AccurateRip database. Statistics Read error : 0 Skipped (treated as error) : 0 Edge jitter error (maybe fixed) : 0 Atom jitter error (maybe fixed) : 0 Drift error (maybe fixed) : 0 Dropped bytes error (maybe fixed) : 0 Duplicated bytes error (maybe fixed) : 0 Inconsistency in error sectors : 0

Track 08 Filename : /../Various Artists - Nine (FLAC)/08 Sophia Loren - Guarda La Luna.flac

Pre-gap length : 00:00:20

Track gain : -2.45 dB Peak : 0.826324 CRC32 hash (test run) : 7BB8088D CRC32 hash : 7BB8088D CRC32 hash (skip zero) : 649F8F57 AccurateRip signature : 48309E79 ->Track not present in AccurateRip database. Statistics Read error : 0 Skipped (treated as error) : 0 Edge jitter error (maybe fixed) : 0 Atom jitter error (maybe fixed) : 0 Drift error (maybe fixed) : 0 Dropped bytes error (maybe fixed) : 0 Duplicated bytes error (maybe fixed) : 0 Inconsistency in error sectors : 0

Track 09 Filename : /../Various Artists - Nine (FLAC)/09 Nicole Kidman - Unusual Way.flac

Pre-gap length : 00:00:49

Track gain : -5.38 dB Peak : 0.953186 CRC32 hash (test run) : 18E14723 CRC32 hash : 18E14723 CRC32 hash (skip zero) : F7C32922 AccurateRip signature : F6FDFF91 ->Track not present in AccurateRip database. Statistics Read error : 0 Skipped (treated as error) : 0 Edge jitter error (maybe fixed) : 0 Atom jitter error (maybe fixed) : 0 Drift error (maybe fixed) : 0 Dropped bytes error (maybe fixed) : 0 Duplicated bytes error (maybe fixed) : 0 Inconsistency in error sectors : 0

Track 10 Filename : /../Various Artists - Nine (FLAC)/10 Marion Cotillard - Take it All.flac

Pre-gap length : 00:00:06

Track gain : -8.07 dB Peak : 0.999969 CRC32 hash (test run) : DBD205C3 CRC32 hash : DBD205C3 CRC32 hash (skip zero) : 8E2F1A81 AccurateRip signature : 064CFAE2 ->Track not present in AccurateRip database. Statistics Read error : 0 Skipped (treated as error) : 0 Edge jitter error (maybe fixed) : 0 Atom jitter error (maybe fixed) : 0 Drift error (maybe fixed) : 0 Dropped bytes error (maybe fixed) : 0 Duplicated bytes error (maybe fixed) : 0 Inconsistency in error sectors : 0

Track 11 Filename : /../Various Artists - Nine (FLAC)/11 Daniel Day-Lewis - I Can't Make This Movie.flac

Pre-gap length : 00:00:41

Track gain : -7.50 dB Peak : 0.986969 CRC32 hash (test run) : A0EDB34D CRC32 hash : A0EDB34D CRC32 hash (skip zero) : 0C273BA1 AccurateRip signature : F66E5681 ->Track not present in AccurateRip database. Statistics Read error : 0 Skipped (treated as error) : 0 Edge jitter error (maybe fixed) : 0 Atom jitter error (maybe fixed) : 0 Drift error (maybe fixed) : 0 Dropped bytes error (maybe fixed) : 0 Duplicated bytes error (maybe fixed) : 0 Inconsistency in error sectors : 0

Track 12 Filename : /../Various Artists - Nine (FLAC)/12 Company - Finale.flac

Pre-gap length : 00:00:11

Track gain : -4.06 dB Peak : 0.987305 CRC32 hash (test run) : 7199A6DF CRC32 hash : 7199A6DF CRC32 hash (skip zero) : 9FBF8623 AccurateRip signature : 85FAEAD8 ->Track not present in AccurateRip database. Statistics Read error : 0 Skipped (treated as error) : 0 Edge jitter error (maybe fixed) : 0 Atom jitter error (maybe fixed) : 0 Drift error (maybe fixed) : 0 Dropped bytes error (maybe fixed) : 0 Duplicated bytes error (maybe fixed) : 0 Inconsistency in error sectors : 0

Track 13 Filename : /../Various Artists - Nine (FLAC)/13 Fergie - Quando Quando Quando.flac

Pre-gap length : 00:00:62

Track gain : -5.87 dB Peak : 0.765137 CRC32 hash (test run) : F31920AC CRC32 hash : F31920AC CRC32 hash (skip zero) : CD8C8341 AccurateRip signature : E126D93E ->Track not present in AccurateRip database. Statistics Read error : 0 Skipped (treated as error) : 0 Edge jitter error (maybe fixed) : 0 Atom jitter error (maybe fixed) : 0 Drift error (maybe fixed) : 0 Dropped bytes error (maybe fixed) : 0 Duplicated bytes error (maybe fixed) : 0 Inconsistency in error sectors : 0

Track 14 Filename : /../Various Artists - Nine (FLAC)/14 Noisettes - Io Bacio...Tu Baci.flac

Pre-gap length : 00:00:31

Track gain : -8.16 dB Peak : 0.958252 CRC32 hash (test run) : B8A3B62D CRC32 hash : B8A3B62D CRC32 hash (skip zero) : 3FF721F1 AccurateRip signature : 1B7FE52E ->Track not present in AccurateRip database. Statistics Read error : 0 Skipped (treated as error) : 0 Edge jitter error (maybe fixed) : 0 Atom jitter error (maybe fixed) : 0 Drift error (maybe fixed) : 0 Dropped bytes error (maybe fixed) : 0 Duplicated bytes error (maybe fixed) : 0 Inconsistency in error sectors : 0

Track 15 Filename : /../Various Artists - Nine (FLAC)/15 Kate Hudson - Cinema Italiano (The Ron Fair Remix).flac

Pre-gap length : 00:00:28

Track gain : -11.26 dB Peak : 0.988647 CRC32 hash (test run) : 6C6737E1 CRC32 hash : 6C6737E1 CRC32 hash (skip zero) : D502D472 AccurateRip signature : 89330A8B ->Track not present in AccurateRip database. Statistics Read error : 0 Skipped (treated as error) : 0 Edge jitter error (maybe fixed) : 0 Atom jitter error (maybe fixed) : 0 Drift error (maybe fixed) : 0 Dropped bytes error (maybe fixed) : 0 Duplicated bytes error (maybe fixed) : 0 Inconsistency in error sectors : 0

Track 16 Filename : /../Various Artists - Nine (FLAC)/16 Griffith Frank - Unusual Way.flac

Pre-gap length : 00:01:13

Track gain : -7.99 dB Peak : 0.988617 CRC32 hash (test run) : DDAAEEBB CRC32 hash : DDAAEEBB CRC32 hash (skip zero) : EE640E60 AccurateRip signature : C1B4507D ->Track not present in AccurateRip database. Statistics Read error : 0 Skipped (treated as error) : 0 Edge jitter error (maybe fixed) : 0 Atom jitter error (maybe fixed) : 0 Drift error (maybe fixed) : 0 Dropped bytes error (maybe fixed) : 0 Duplicated bytes error (maybe fixed) : 0 Inconsistency in error sectors : 0

No errors occurred

End of status report
REM ACCURATERIPID 00232923-019fe85e-d80d8510TITLE "Nine"PERFORMER "Various Artists"CATALOG 0602527275017REM GENRE "Soundtrack"REM DATE 2009FILE "01 Female Ensemble - Overture Delle Donne.flac" WAVE TRACK 01 AUDIO TITLE "Overture Delle Donne" PERFORMER "Female Ensemble" ISRC USUG10914075 INDEX 01 00:00:00 TRACK 02 AUDIO TITLE "Guido's Song" PERFORMER "Daniel Day-Lewis" ISRC USUG10914076 INDEX 00 04:06:47FILE "02 Daniel Day-Lewis - Guido's Song.flac" WAVE INDEX 01 00:00:00 TRACK 03 AUDIO TITLE "A Call from the Vatican" PERFORMER "Penélope Cruz" ISRC USUG10914077 INDEX 00 03:41:36FILE "03 Penelope Cruz - A Call from the Vatican.flac" WAVE INDEX 01 00:00:00 TRACK 04 AUDIO TITLE "Folies Bergere" PERFORMER "Judi Dench" ISRC USUG10914078 INDEX 00 03:40:02FILE "04 Judi Dench - Folies Bergere.flac" WAVE INDEX 01 00:00:00FILE "05 Fergie - Be Italian.flac" WAVE TRACK 05 AUDIO TITLE "Be Italian" PERFORMER "Fergie" ISRC USUG10914079 INDEX 01 00:00:00 TRACK 06 AUDIO TITLE "My Husband Makes Movies" PERFORMER "Marion Cotillard" ISRC USUG10914080 INDEX 00 04:11:66FILE "06 Marion Cotillard - My Husband Makes Movies.flac" WAVE INDEX 01 00:00:00 TRACK 07 AUDIO TITLE "Cinema Italiano" PERFORMER "Kate Hudson" ISRC USUG10914081 INDEX 00 04:48:34FILE "07 Kate Hudson - Cinema Italiano.flac" WAVE INDEX 01 00:00:00 TRACK 08 AUDIO TITLE "Guarda La Luna" PERFORMER "Sophia Loren" ISRC USUG10914082 INDEX 00 03:13:30FILE "08 Sophia Loren - Guarda La Luna.flac" WAVE INDEX 01 00:00:00 TRACK 09 AUDIO TITLE "Unusual Way" PERFORMER "Nicole Kidman" ISRC USUG10914083 INDEX 00 03:10:32FILE "09 Nicole Kidman - Unusual Way.flac" WAVE INDEX 01 00:00:00 TRACK 10 AUDIO TITLE "Take It All" PERFORMER "Marion Cotillard" ISRC USUG10914084 INDEX 00 03:26:03FILE "10 Marion Cotillard - Take It All.flac" WAVE INDEX 01 00:00:00 TRACK 11 AUDIO TITLE "I Can't Make This Movie" PERFORMER "Daniel Day-Lewis" ISRC USUG10914085 INDEX 00 03:02:56FILE "11 Daniel Day-Lewis - I Can't Make This Movie.flac" WAVE INDEX 01 00:00:00 TRACK 12 AUDIO TITLE "Finale" PERFORMER "The Cast" ISRC USUG10914086 INDEX 00 02:11:13FILE "12 The Cast - Finale.flac" WAVE INDEX 01 00:00:00 TRACK 13 AUDIO TITLE "Quando Quando Quando" PERFORMER "Fergie" ISRC USUM70916287 INDEX 00 03:34:53FILE "13 Fergie - Quando Quando Quando.flac" WAVE INDEX 01 00:00:00 TRACK 14 AUDIO TITLE "Io Bacio... Tu Baci" PERFORMER "Noisettes" ISRC GBUM70915813 INDEX 00 03:15:35FILE "14 Noisettes - Io Bacio Tu Baci.flac" WAVE INDEX 01 00:00:00 TRACK 15 AUDIO TITLE "Cinema Italiano (The Ron Fair Remix)" PERFORMER "Kate Hudson" ISRC USUM70916328 INDEX 00 03:24:22FILE "15 Kate Hudson - Cinema Italiano - The Ron Fair Remix.flac" WAVE INDEX 01 00:00:00 TRACK 16 AUDIO TITLE "Unusual Way" PERFORMER "Griffith Frank" ISRC USUG10914087 INDEX 00 03:24:43FILE "16 Griffith Frank - Unusual Way.flac" WAVE INDEX 01 00:00:00


Трекер:  [ 22-Май-2017 12:00 ]

  

Скачать .torrent

Размер .torrent файла 29 KB


Размер: 350 MB
Хэш (hash) релиза: f3f1ea97ae48109cba3152bb3c92fc42442d1415

Торренты, похожие на Девять Nine скачать торрент

Форум Название Автор Размер S L Добавлен
Саундтреки к фильмам и мультфильмам (lossless) ·· (Score) Девять / Nine / 9 — Deborah Lurie (with Danny Elfman; Coheed and Cambria) — 2009, FLAC (tracks+.cue), lossless AqvaGen 269836381257 MB 0 0 1292270544

23:02

13-Дек-10

Саундтреки к фильмам и мультфильмам (lossless) ·· (Soundtrack) Девять / Nine — 2009, FLAC (tracks+.cue), lossless Galfimbul 366504495350 MB 0 0 1292270261

22:57

13-Дек-10

Саундтреки к фильмам и мультфильмам (mp3) ·· (Soundtrack) Девять / Nine - 2009, MP3 (tracks), 320 kbps Galfimbul 146299436140 MB 0 0 1292265789

21:43

13-Дек-10

Саундтреки к фильмам и мультфильмам (mp3) ·· (Score / Soundtrack) Девять месяцев / Nine Months (by Hans Zimmer & VA) - 1995, MP3 (tracks), 320 kbps Galfimbul 146789182140 MB 0 0 1464372446

21:07

27-Май-16

Саундтреки к фильмам и мультфильмам (lossless) ·· (Score) Девять ярдов / The Whole Nine Yards (by Randy Edelman) - 2000, FLAC (tracks+.cue), lossless uzi2009 377764261360 MB 0 0 1323979342

23:02

15-Дек-11

Саундтреки к фильмам и мультфильмам (mp3) ·· (Score) Nine / 9 / Девять (Deborah Lurie & Danny Elfman) - 2009, MP3 (tracks), CBR 320 kbps Mos 137096571131 MB 0 0 1292268073

22:21

13-Дек-10

Еще никто не оставлял запись к записи скачать торрент Девять Nine . Будь первым!

!Обратная связь