Скачать через торрент музыку Там, где течёт река И катит воды река бесплатно без регистрации torrent

Если у вас наблюдаются проблемы со скриншотами, переходом по ссылками, скачиванием торрентов - проблемы в блокировщике рекламы AdBlock. #хорошегоДня!


Статистика раздачи
Размер:  282 MB   |    Зарегистрирован:  3 месяца 28 дней   |    .torrent скачан:  10 раз   |   
Раздают:  1  
   
Загрузка...
 
Автор Сообщение

Galfimbul

avatar Galfimbul


A River Runs Through It
Mark Isham
Жанр
: Score
Год выпуска диска: 1992
Производитель диска: Франция (Milan Records)
Аудио кодек: FLAC
Тип рипа: tracks+.cue
Битрейт аудио: lossless
Продолжительность: 0:58:27

Музыка Марка Ишема к замечательному фильму Роберта Редфорда о жизни и рыбалке, с Брэдом Питтом в одной из главных ролей.

Фильм «И катит воды река» здесь. — MP3-версия диска здесь.
01. A River Runs Through It 2:25
02. Casting Presbyterian Style 1:30
03. A Land Filled with Wonder 1:34
04. Down the Alley (With You) 2:21
05. A Summer of Lumber and Fishing 1:46
06. Shooting the Chutes 1:54
07. Three Fishermen 1:57
08. A Trip to the Unknown 2:30
09. A Four-Count Rhythm 2:30
10. The Sheik of Araby (by Harry B. Smith, Ted Snyder, Francis Wheeler) 1:58
11. Prudence Johnson — Bye Bye Blackbird (by Mort Dixon, Ray Henderson) 2:00
12. Je Ne Sais Quoi 0:58
13. Swing Me High, Swing Me Low 2:30
14. A Place Remembered 0:55
15. A Remark was Passed 2:24
16. Rugged Cross (Traditional) 2:51
17. Muskrat Ramble (by Ray Gilbert, Edward “Kid” Ory) 2:01
18. Rawhide 0:59
19. The Wild Ride 2:30
20. Early Departure 0:51
21. The Splendor in the Grass 1:12
22. Jessie and Norman 3:02
23. Lolo's 1:16
24. The High Road 1:03
25. Yes, Quite a Day 1:07
26. A Fine Fisherman and the Big Blackfoot River 1:43
27. The Moment that Could Not Last 1:24
28. Too Deep for Tears 0:48
29. Without Complete Understanding 1:23
30. In the Half-Light of the Canyon 2:47
31. Haunted by Waters — A River Runs Through It (Reprise) 4:19
Exact Audio Copy V0.99 prebeta 4 from 23. January 2008

EAC extraction logfile from 2. September 2008, 9:59

Mark Isham / A River Runs Through It

Used drive : HL-DT-STDVD-ROM GDR8163B Adapter: 0 ID: 0

Read mode : SecureUtilize accurate stream : YesDefeat audio cache : YesMake use of C2 pointers : No

Read offset correction : 102Overread into Lead-In and Lead-Out : NoFill up missing offset samples with silence : YesDelete leading and trailing silent blocks : NoNull samples used in CRC calculations : YesUsed interface : Native Win32 interface for Win NT & 2000Gap handling : Appended to previous track

Used output format : User Defined EncoderSelected bitrate : 128 kBit/sQuality : HighAdd ID3 tag : NoCommand line compressor : C:\Archivos de programa\FLAC\flac.exeAdditional command line options : -8 -V -T "ARTIST=%a" -T "TITLE=%t" -T "ALBUM=%g" -T "DATE=%y" -T "TRACKNUMBER=%n" -T "GENRE=%m" -T "COMMENT=EAC FLAC -8" %s

TOC of the extracted CD

Track | Start | Length | Start sector | End sector --------------------------------------------------------- 1 | 0:00.32 | 2:24.55 | 32 | 10886 2 | 2:25.12 | 1:29.48 | 10887 | 17609 3 | 3:54.60 | 1:34.37 | 17610 | 24696 4 | 5:29.22 | 2:20.68 | 24697 | 35264 5 | 7:50.15 | 1:45.55 | 35265 | 43194 6 | 9:35.70 | 1:53.65 | 43195 | 51734 7 | 11:29.60 | 1:56.70 | 51735 | 60504 8 | 13:26.55 | 2:30.07 | 60505 | 71761 9 | 15:56.62 | 2:29.65 | 71762 | 83001 10 | 18:26.52 | 1:57.55 | 83002 | 91831 11 | 20:24.32 | 2:00.03 | 91832 | 100834 12 | 22:24.35 | 0:57.45 | 100835 | 105154 13 | 23:22.05 | 2:30.30 | 105155 | 116434 14 | 25:52.35 | 0:55.35 | 116435 | 120594 15 | 26:47.70 | 2:23.65 | 120595 | 131384 16 | 29:11.60 | 2:51.25 | 131385 | 144234 17 | 32:03.10 | 2:01.02 | 144235 | 153311 18 | 34:04.12 | 0:59.28 | 153312 | 157764 19 | 35:03.40 | 2:29.47 | 157765 | 168986 20 | 37:33.12 | 0:50.43 | 168987 | 172779 21 | 38:23.55 | 1:11.70 | 172780 | 178174 22 | 39:35.50 | 3:01.57 | 178175 | 191806 23 | 42:37.32 | 1:16.20 | 191807 | 197526 24 | 43:53.52 | 1:03.13 | 197527 | 202264 25 | 44:56.65 | 1:06.67 | 202265 | 207281 26 | 46:03.57 | 1:42.40 | 207282 | 214971 27 | 47:46.22 | 1:23.50 | 214972 | 221246 28 | 49:09.72 | 0:47.65 | 221247 | 224836 29 | 49:57.62 | 1:23.23 | 224837 | 231084 30 | 51:21.10 | 2:47.35 | 231085 | 243644 31 | 54:08.45 | 4:18.57 | 243645 | 263051

Track 1

Filename H:\Mark Isham - A River Runs Through It (1992) [FLAC]\disc\01 - A River Runs Through It.wav

Pre-gap length 0:00:02.42

Peak level 97.4 % Track quality 100.0 % Test CRC 271F521D Copy CRC 271F521D Cannot be verified as accurate (confidence 1) [BC73AC9C], AccurateRip returned [8A6CD31C] Copy OK

Track 2

Filename H:\Mark Isham - A River Runs Through It (1992) [FLAC]\disc\02 - Casting Presbyterian Style.wav

Peak level 49.5 % Track quality 99.8 % Test CRC 89742B66 Copy CRC 89742B66 Cannot be verified as accurate (confidence 1) [9ABA99EA], AccurateRip returned [9E19489A] Copy OK

Track 3

Filename H:\Mark Isham - A River Runs Through It (1992) [FLAC]\disc\03 - A Land Filled With Wonder.wav

Peak level 99.4 % Track quality 100.0 % Test CRC 9D0E3595 Copy CRC 9D0E3595 Cannot be verified as accurate (confidence 1) [4E4F1BF7], AccurateRip returned [A006BA71] Copy OK

Track 4

Filename H:\Mark Isham - A River Runs Through It (1992) [FLAC]\disc\04 - Down the Alley (With You).wav

Peak level 98.3 % Track quality 100.0 % Test CRC 64F705E5 Copy CRC 64F705E5 Cannot be verified as accurate (confidence 1) [D3AFDB2D], AccurateRip returned [E23425D2] Copy OK

Track 5

Filename H:\Mark Isham - A River Runs Through It (1992) [FLAC]\disc\05 - A Summer of Lumber and Fishing.wav

Peak level 55.4 % Track quality 100.0 % Test CRC E90D151B Copy CRC E90D151B Cannot be verified as accurate (confidence 1) [3B1F3002], AccurateRip returned [7FCA956A] Copy OK

Track 6

Filename H:\Mark Isham - A River Runs Through It (1992) [FLAC]\disc\06 - Shooting the Chutes.wav

Peak level 98.3 % Track quality 99.9 % Test CRC 288C0B57 Copy CRC 288C0B57 Cannot be verified as accurate (confidence 1) [57E5948E], AccurateRip returned [D3E03B81] Copy OK

Track 7

Filename H:\Mark Isham - A River Runs Through It (1992) [FLAC]\disc\07 - Three Fisherman.wav

Peak level 66.6 % Track quality 100.0 % Test CRC 0D2D8AB3 Copy CRC 0D2D8AB3 Cannot be verified as accurate (confidence 1) [07482739], AccurateRip returned [450C4615] Copy OK

Track 8

Filename H:\Mark Isham - A River Runs Through It (1992) [FLAC]\disc\08 - A Trip to the Unknown.wav

Peak level 64.6 % Track quality 99.9 % Test CRC 40979D94 Copy CRC 40979D94 Cannot be verified as accurate (confidence 1) [38469429], AccurateRip returned [64E1D5F9] Copy OK

Track 9

Filename H:\Mark Isham - A River Runs Through It (1992) [FLAC]\disc\09 - A Four-Count Rythm.wav

Peak level 72.3 % Track quality 100.0 % Test CRC 4D06092D Copy CRC 4D06092D Cannot be verified as accurate (confidence 1) [EB0B4862], AccurateRip returned [9B880580] Copy OK

Track 10

Filename H:\Mark Isham - A River Runs Through It (1992) [FLAC]\disc\10 - The Sheik of Araby.wav

Peak level 70.3 % Track quality 100.0 % Test CRC A4809CD3 Copy CRC A4809CD3 Cannot be verified as accurate (confidence 1) [AA7792C6], AccurateRip returned [D11CFDF5] Copy OK

Track 11

Filename H:\Mark Isham - A River Runs Through It (1992) [FLAC]\disc\11 - Bye Bye Blackbird.wav

Peak level 64.2 % Track quality 100.0 % Test CRC 8CEBB69D Copy CRC 8CEBB69D Cannot be verified as accurate (confidence 1) [C83D3873], AccurateRip returned [8FB908ED] Copy OK

Track 12

Filename H:\Mark Isham - A River Runs Through It (1992) [FLAC]\disc\12 - Je Ne Sais Quois.wav

Pre-gap length 0:00:01.33

Peak level 46.3 % Track quality 100.0 % Test CRC 498B31A2 Copy CRC 498B31A2 Cannot be verified as accurate (confidence 1) [435CA555], AccurateRip returned [31248F3C] Copy OK

Track 13

Filename H:\Mark Isham - A River Runs Through It (1992) [FLAC]\disc\13 - Swing Me High, Swing Me Low.wav

Peak level 64.3 % Track quality 99.9 % Test CRC 90C46510 Copy CRC 90C46510 Cannot be verified as accurate (confidence 1) [4C0CB9CB], AccurateRip returned [8692446F] Copy OK

Track 14

Filename H:\Mark Isham - A River Runs Through It (1992) [FLAC]\disc\14 - A Place Remembered.wav

Peak level 47.6 % Track quality 99.8 % Test CRC 6A4B5D29 Copy CRC 6A4B5D29 Cannot be verified as accurate (confidence 1) [98E44122], AccurateRip returned [C5AEFA9E] Copy OK

Track 15

Filename H:\Mark Isham - A River Runs Through It (1992) [FLAC]\disc\15 - A Remark was Passed.wav

Peak level 26.2 % Track quality 100.0 % Test CRC C17696AC Copy CRC C17696AC Cannot be verified as accurate (confidence 1) [1CA320C2], AccurateRip returned [089EDC48] Copy OK

Track 16

Filename H:\Mark Isham - A River Runs Through It (1992) [FLAC]\disc\16 - Rugged Cross.wav

Peak level 81.8 % Track quality 99.9 % Test CRC 52EBA334 Copy CRC 52EBA334 Cannot be verified as accurate (confidence 1) [3B48D081], AccurateRip returned [E5B327D1] Copy OK

Track 17

Filename H:\Mark Isham - A River Runs Through It (1992) [FLAC]\disc\17 - Muskrat Ramble.wav

Peak level 92.6 % Track quality 100.0 % Test CRC 4340D87A Copy CRC 4340D87A Cannot be verified as accurate (confidence 1) [E418227E], AccurateRip returned [F3D6DE54] Copy OK

Track 18

Filename H:\Mark Isham - A River Runs Through It (1992) [FLAC]\disc\18 - Rawhide.wav

Pre-gap length 0:00:01.86

Peak level 58.5 % Track quality 100.0 % Test CRC 929E1CE8 Copy CRC 929E1CE8 Cannot be verified as accurate (confidence 1) [D3DBFFAE], AccurateRip returned [28341D2B] Copy OK

Track 19

Filename H:\Mark Isham - A River Runs Through It (1992) [FLAC]\disc\19 - The Wild Ride.wav

Peak level 98.3 % Track quality 100.0 % Test CRC D8B83F9B Copy CRC D8B83F9B Cannot be verified as accurate (confidence 1) [A4C1D543], AccurateRip returned [4DD0708C] Copy OK

Track 20

Filename H:\Mark Isham - A River Runs Through It (1992) [FLAC]\disc\20 - Early Departure.wav

Pre-gap length 0:00:01.00

Peak level 30.4 % Track quality 100.0 % Test CRC 1EA47D34 Copy CRC 1EA47D34 Cannot be verified as accurate (confidence 1) [5D095B43], AccurateRip returned [B16ADD25] Copy OK

Track 21

Filename H:\Mark Isham - A River Runs Through It (1992) [FLAC]\disc\21 - The Splendor in the Grass.wav

Peak level 62.1 % Track quality 100.0 % Test CRC 03B01F40 Copy CRC 03B01F40 Cannot be verified as accurate (confidence 1) [ADB91313], AccurateRip returned [4BFB6E40] Copy OK

Track 22

Filename H:\Mark Isham - A River Runs Through It (1992) [FLAC]\disc\22 - Jessie and Norman.wav

Peak level 62.9 % Track quality 100.0 % Test CRC 2F33F41E Copy CRC 2F33F41E Cannot be verified as accurate (confidence 1) [7ABD6637], AccurateRip returned [8C7EE94F] Copy OK

Track 23

Filename H:\Mark Isham - A River Runs Through It (1992) [FLAC]\disc\23 - Lolo's.wav

Pre-gap length 0:00:01.40

Peak level 45.3 % Track quality 100.0 % Test CRC 24F8FBDC Copy CRC 24F8FBDC Cannot be verified as accurate (confidence 1) [73E6DD55], AccurateRip returned [B9139928] Copy OK

Track 24

Filename H:\Mark Isham - A River Runs Through It (1992) [FLAC]\disc\24 - The High Road.wav

Peak level 75.5 % Track quality 100.0 % Test CRC 2C6A9984 Copy CRC 2C6A9984 Cannot be verified as accurate (confidence 1) [1DBFBF0C], AccurateRip returned [ED614BDB] Copy OK

Track 25

Filename H:\Mark Isham - A River Runs Through It (1992) [FLAC]\disc\25 - Yes, Quite a Day.wav

Peak level 61.5 % Track quality 100.0 % Test CRC CB66F448 Copy CRC CB66F448 Cannot be verified as accurate (confidence 1) [7D506C24], AccurateRip returned [114BAFDE] Copy OK

Track 26

Filename H:\Mark Isham - A River Runs Through It (1992) [FLAC]\disc\26 - A Fine Fisherman and the Big Blackfoot River.wav

Pre-gap length 0:00:01.06

Peak level 97.7 % Track quality 100.0 % Test CRC 8BE4CFC4 Copy CRC 8BE4CFC4 Cannot be verified as accurate (confidence 1) [60109C6D], AccurateRip returned [C3EEF6E6] Copy OK

Track 27

Filename H:\Mark Isham - A River Runs Through It (1992) [FLAC]\disc\27 - The Moment that Could Not Last.wav

Peak level 37.9 % Track quality 99.8 % Test CRC B7C81000 Copy CRC B7C81000 Cannot be verified as accurate (confidence 1) [19B0BE30], AccurateRip returned [C6593C0A] Copy OK

Track 28

Filename H:\Mark Isham - A River Runs Through It (1992) [FLAC]\disc\28 - Too Deep for Tears.wav

Peak level 65.0 % Track quality 100.0 % Test CRC D07203F1 Copy CRC D07203F1 Cannot be verified as accurate (confidence 1) [DA77934A], AccurateRip returned [DAB30E2C] Copy OK

Track 29

Filename H:\Mark Isham - A River Runs Through It (1992) [FLAC]\disc\29 - Without Complete Understanding.wav

Pre-gap length 0:00:01.66

Peak level 36.7 % Track quality 100.0 % Test CRC 8F6C5ED0 Copy CRC 8F6C5ED0 Cannot be verified as accurate (confidence 1) [3D174708], AccurateRip returned [4A7E3A0C] Copy OK

Track 30

Filename H:\Mark Isham - A River Runs Through It (1992) [FLAC]\disc\30 - In the Half-Light of the Canyon.wav

Pre-gap length 0:00:01.30

Peak level 91.3 % Track quality 100.0 % Test CRC CB547EDA Copy CRC CB547EDA Cannot be verified as accurate (confidence 1) [B7F9E789], AccurateRip returned [31383117] Copy OK

Track 31

Filename H:\Mark Isham - A River Runs Through It (1992) [FLAC]\disc\31 - Haunted by Waters-A River Runs Through it (Reprise).wav

Peak level 91.9 % Track quality 100.0 % Test CRC 8DD0355B Copy CRC 8DD0355B Cannot be verified as accurate (confidence 1) [726F8630], AccurateRip returned [C5D60B17] Copy OK

No tracks could be verified as accurateYou may have a different pressing from the one(s) in the database

No errors occurred

End of status report
[Verification date: 6.10.9 18:27:9]
[Disc ID: 0040aa4c-057f1fb4-d20db31f]
Pregap length 00:00:32.
Track [ CRC    ] Status
01    [bc73ac9c] (03/03) Accurately ripped as in pressing(s) #1
02    [9aba99ea] (03/03) Accurately ripped as in pressing(s) #1
03    [4e4f1bf7] (02/02) Accurately ripped as in pressing(s) #1
04    [d3afdb2d] (03/03) Accurately ripped as in pressing(s) #1
05    [3b1f3002] (03/03) Accurately ripped as in pressing(s) #1
06    [57e5948e] (03/03) Accurately ripped as in pressing(s) #1
07    [07482739] (03/03) Accurately ripped as in pressing(s) #1
08    [38469429] (03/03) Accurately ripped as in pressing(s) #1
09    [eb0b4862] (03/03) Accurately ripped as in pressing(s) #1
10    [aa7792c6] (03/03) Accurately ripped as in pressing(s) #1
11    [c83d3873] (03/03) Accurately ripped as in pressing(s) #1
12    [435ca555] (03/03) Accurately ripped as in pressing(s) #1
13    [4c0cb9cb] (03/03) Accurately ripped as in pressing(s) #1
14    [98e44122] (03/03) Accurately ripped as in pressing(s) #1
15    [1ca320c2] (03/03) Accurately ripped as in pressing(s) #1
16    [3b48d081] (03/03) Accurately ripped as in pressing(s) #1
17    [e418227e] (03/03) Accurately ripped as in pressing(s) #1
18    [d3dbffae] (03/03) Accurately ripped as in pressing(s) #1
19    [a4c1d543] (03/03) Accurately ripped as in pressing(s) #1
20    [5d095b43] (03/03) Accurately ripped as in pressing(s) #1
21    [adb91313] (03/03) Accurately ripped as in pressing(s) #1
22    [7abd6637] (03/03) Accurately ripped as in pressing(s) #1
23    [73e6dd55] (03/03) Accurately ripped as in pressing(s) #1
24    [1dbfbf0c] (03/03) Accurately ripped as in pressing(s) #1
25    [7d506c24] (03/03) Accurately ripped as in pressing(s) #1
26    [60109c6d] (03/03) Accurately ripped as in pressing(s) #1
27    [19b0be30] (03/03) Accurately ripped as in pressing(s) #1
28    [da77934a] (03/03) Accurately ripped as in pressing(s) #1
29    [3d174708] (03/03) Accurately ripped as in pressing(s) #1
30    [b7f9e789] (03/03) Accurately ripped as in pressing(s) #1
31    [726f8630] (02/02) Accurately ripped as in pressing(s) #1

Track [ CRC32  ]    [W/O NULL]
--    [A7BD0E4F]    [F34A7D76]
01    [271F521D]    [83239297]
02    [89742B66]    [2A497DB9]
03    [9D0E3595]    [C5EC009E]
04    [64F705E5]    [369E8DA1]
05    [E90D151B]    [B02E281C]
06    [288C0B57]    [AB0A9697]
07    [0D2D8AB3]    [F93EFC76]
08    [40979D94]    [4A56CC99]
09    [4D06092D]    [8DF69AA0]
10    [A4809CD3]    [B5ECB0E8]
11    [8CEBB69D]    [5E1F40E5]
12    [498B31A2]    [97AE1DE8]
13    [90C46510]    [FE84E39F]
14    [6A4B5D29]    [5B8D04E8]
15    [C17696AC]    [44ACAB51]
16    [52EBA334]    [C16EE95E]
17    [4340D87A]    [6F3A3D0E]
18    [929E1CE8]    [B6245BE1]
19    [D8B83F9B]    [644CC88E]
20    [1EA47D34]    [45E3BB1E]
21    [03B01F40]    [4F17E4F8]
22    [2F33F41E]    [48C2CE60]
23    [24F8FBDC]    [04FBF0B3]
24    [2C6A9984]    [7576CFC5]
25    [CB66F448]    [01F957EE]
26    [8BE4CFC4]    [F04FCF47]
27    [B7C81000]    [FEB9C807]
28    [D07203F1]    [E66B024C]
29    [8F6C5ED0]    [E1F97EBC]
30    [CB547EDA]    [3001CDE1]
31    [8DD0355B]    [5E0015D2]


Трекер:  [ 22-Май-2017 08:30 ]

  

Скачать .torrent

Размер .torrent файла 25 KB


Размер: 282 MB
Хэш (hash) релиза: 97caf8b74c684530676d796db9278105320292fe

Еще никто не оставлял запись к записи скачать торрент Там, где течёт река И катит воды река . Будь первым!

!Обратная связь