Скачать через торрент музыку Созвездие хитов: Инструментальные хиты кино - 2004, APE бесплатно без регистрации torrent

Если у вас наблюдаются проблемы со скриншотами, переходом по ссылками, скачиванием торрентов - проблемы в блокировщике рекламы AdBlock. #хорошегоДня!


Статистика раздачи
Размер:  303 MB   |    Зарегистрирован:  6 месяцев   |    .torrent скачан:  34 раза   |   
Раздают:  1  
   
Загрузка...
 
Автор Сообщение

Galfimbul

avatar Galfimbul


Созвездие хитов: Инструментальные хиты кино

Жанр: Soundtrack
Год выпуска диска: 2004
Производитель диска: Россия
Аудио кодек: APE
Тип рипа: image+.cue
Битрейт аудио: lossless
Продолжительность: 1:00:39
Трэклист:
01. Белый Бим Черное Ухо - Поезд
02. Берегись Автомобиля - Вальс
03. Бригада - Скрипачка
04. Бриллиантовая Рука - Лето Прошло
05. Гардемарины, Вперед! - Берег Моря
06. Джентльмены Удачи - Джентльмены Удачи
07. Зависть Богов - Танго
08. Конец Императора Тайги - Талисман
09. Москва Слезам Не Верит - Инструментальная Тема
10. Мужская Работа - Родина
11. Неуловимые Мстители - Погоня
12. Обыкновенное Чудо - Инструментальная Тема
13. Пираты ХХ Века - Инструментальная Тема
14. Приказано Взять Живым - Приказано Взять Живым
15. С Любимыми Не Расставайтесь - Инструментальная Тема
16. Семнадцать Мгновений Весны - Я Прошу, Хоть Ненадолго
17. Служебный Роман - Дождь
18. Три Тополя На Плющихе - Нежность
19. Формула Любви - Инструментальная Тема
20. Иван Васильевич Меняет Профессию - Погоня
21. Ирония Судьбы Или С Легким Паром! - На Третьей Улице Строителей
22. Свой Среди Чужих, Чужой Среди Своих - Инструментальная Тема
23. Приключения Шерлока Холмса И Доктора Ватсона - Увертюра
Exact Audio Copy V0.99 prebeta 4 from 23. January 2008

Отчёт EAC об извлечении, выполненном 11. октября 2008, 15:55

Various / Инструментальные хиты кино

Дисковод: TSSTcorpCD/DVDW SH-W162L Adapter: 0 ID: 0

Режим чтения : ДостоверностьИспользование точного потока : ДаОтключение кэша аудио : ДаИспользование указателей C2 : Нет

Коррекция смещения при чтении : 6Способность читать области Lead-in и Lead-out : НетЗаполнение пропущенных сэмплов тишиной : ДаУдаление блоков с тишиной в начале и конце : НетПри вычислениях CRC использовались нулевые сэмплы : ДаИнтерфейс : Встроенный Win32-интерфейс для Win NT/2000

Выходной формат : Внутренние WAV-операцииФормат сэмплов : 44.100 Гц; 16 бит; стерео

TOC извлечённого CD

Трек | Старт | Длительность | Начальный сектор | Конечный сектор --------------------------------------------------------------------- 1 | 0:00.00 | 1:47.27 | 0 | 8051 2 | 1:47.27 | 2:27.11 | 8052 | 19087 3 | 4:14.38 | 2:52.10 | 19088 | 31997 4 | 7:06.48 | 1:49.17 | 31998 | 40189 5 | 8:55.65 | 3:25.14 | 40190 | 55578 6 | 12:21.04 | 4:33.66 | 55579 | 76119 7 | 16:54.70 | 1:18.26 | 76120 | 81995 8 | 18:13.21 | 3:16.38 | 81996 | 96733 9 | 21:29.59 | 3:08.28 | 96734 | 110861 10 | 24:38.12 | 1:41.19 | 110862 | 118455 11 | 26:19.31 | 2:22.47 | 118456 | 129152 12 | 28:42.03 | 3:55.65 | 129153 | 146842 13 | 32:37.68 | 3:06.64 | 146843 | 160856 14 | 35:44.57 | 1:30.57 | 160857 | 167663 15 | 37:15.39 | 1:12.69 | 167664 | 173132 16 | 38:28.33 | 1:31.55 | 173133 | 180012 17 | 40:00.13 | 3:09.28 | 180013 | 194215 18 | 43:09.41 | 3:06.37 | 194216 | 208202 19 | 46:16.03 | 2:32.28 | 208203 | 219630 20 | 48:48.31 | 3:19.48 | 219631 | 234603 21 | 52:08.04 | 3:29.71 | 234604 | 250349 22 | 55:38.00 | 2:05.52 | 250350 | 259776 23 | 57:43.52 | 2:55.16 | 259777 | 272917

Характеристики диапазона извлечения и сообщения об ошибках

Выбранный диапазон

Имя файла C:\Users\Артур\Desktop\Various - Инструментальные хиты кино.wav

Пиковый уровень 97.7 % Качество диапазона 100.0 % CRC копии BD14378A Копирование... OK

Ошибок не произошло

AccurateRip: сводка

Трек 1 точное извлечение (доверие 1) [67A6D3F4]Трек 2 точное извлечение (доверие 1) [277A466E]Трек 3 точное извлечение (доверие 1) [D6B06E1C]Трек 4 точное извлечение (доверие 1) [1091731D]Трек 5 точное извлечение (доверие 1) [600E21A4]Трек 6 точное извлечение (доверие 1) [17059184]Трек 7 точное извлечение (доверие 1) [6449AC2D]Трек 8 точное извлечение (доверие 1) [2F7F1EEF]Трек 9 точное извлечение (доверие 1) [88A002C3]Трек 10 точное извлечение (доверие 1) [538D3CB3]Трек 11 точное извлечение (доверие 1) [3F1E7C73]Трек 12 точное извлечение (доверие 1) [D7640A4F]Трек 13 точное извлечение (доверие 1) [7F158CD6]Трек 14 точное извлечение (доверие 1) [EB3BA240]Трек 15 точное извлечение (доверие 1) [80A5A1E0]Трек 16 точное извлечение (доверие 1) [FCFD56A6]Трек 17 точное извлечение (доверие 1) [AC1C5B97]Трек 18 точное извлечение (доверие 1) [D95887E6]Трек 19 точное извлечение (доверие 1) [92847CA9]Трек 20 точное извлечение (доверие 1) [DC8612B8]Трек 21 точное извлечение (доверие 1) [C9F4BFF9]Трек 22 точное извлечение (доверие 1) [435C0867]Трек 23 точное извлечение (доверие 1) [415E54BD]

Все треки извлечены точно

Конец отчёта


Трекер:  [ 21-Май-2017 23:30 ]

  

Скачать .torrent

Размер .torrent файла 12 KB


Размер: 303 MB
Хэш (hash) релиза: cb496c013c21dc5cfe1f452b45ba15a3ac6d92d4

Еще никто не оставлял запись к записи скачать торрент Созвездие хитов: Инструментальные хиты кино - 2004, APE . Будь первым!

!Обратная связь