Скачать через торрент музыку Двадцать одно 21 — Rihanna, Unkle, Amon Tobin, MGMT, Soulwax & Various — 2008, FLAC бесплатно без регистрации torrent

Если у вас наблюдаются проблемы со скриншотами, переходом по ссылками, скачиванием торрентов - проблемы в блокировщике рекламы AdBlock. #хорошегоДня!


Статистика раздачи
Размер:  443 MB   |    Зарегистрирован:  3 месяца 28 дней   |    .torrent скачан:  19 раз   |   
Раздают:  1  
   
Загрузка...
 
Автор Сообщение

Galfimbul

avatar Galfimbul


21

Жанр: Soundtrack
Год выпуска диска: 2008
Производитель диска: Россия (СОНИ БМГ Мьюзик Энтертейнмент)
Аудио кодек: FLAC
Тип рипа: tracks+.cue
Битрейт аудио: lossless
Продолжительность: 1:04:07

Кто берёт от жизни всё, например обыгрывает казино в блэкджек, как сообразительные герои фильма «Двадцать одно» — тот делает это именно под такую музыку. А РоллингСтоуновская You Can't Always Get What You Want, прекрасно знакомая каждому, кто видел хоть несколько серий «Доктора Хауса», предстаёт здесь в видении бельгийского коллектива Soulwax и совсем на себя не похожа.
01. The Rolling Stones — You Can't Always Get What You Want (Re-Mixed & Re-Edited by Soulwax) 6:07
02. MGMT — Time to Pretend 4:21
03. LCD Soundsystem — Big Ideas 5:41
04. David Sardy feat. Liela Moss — Giant 3:42
05. Amon Tobin — Always 3:38
06. Peter Bjorn and John — Young Folks 4:38
07. Junkie XL feat. Electrocute — Mad Pursuit 4:16
08. Get Shakes — Sister Self Doubt 4:22
09. The Aliens — I am the Unknown 5:28
10. Rihanna — Shut Up and Drive 3:34
11. Knivez Out — Alright 3:31
12. Domino — Tropical Moonlight 3:28
13. Unkle — Hold My Hand 4:58
14. Mark Ronson feat. Kasabian — L. S. F. (Lost Souls Forever) 3:32
15. Broadcast — Tender Buttons 2:51
Exact Audio Copy V0.99 prebeta 4 from 23. January 2008

EAC extraction logfile from 26. September 2009, 11:56

Various / 21

Used drive : TOSHIBA CDW/DVD SD-R1612 Adapter: 3 ID: 0

Read mode : SecureUtilize accurate stream : YesDefeat audio cache : YesMake use of C2 pointers : No

Read offset correction : 6Overread into Lead-In and Lead-Out : NoFill up missing offset samples with silence : YesDelete leading and trailing silent blocks : NoNull samples used in CRC calculations : YesUsed interface : Native Win32 interface for Win NT & 2000Gap handling : Appended to previous track

Used output format : Internal WAV RoutinesSample format : 44.100 Hz; 16 Bit; Stereo

TOC of the extracted CD

Track | Start | Length | Start sector | End sector --------------------------------------------------------- 1 | 0:00.00 | 6:07.00 | 0 | 27524 2 | 6:07.00 | 4:20.47 | 27525 | 47071 3 | 10:27.47 | 5:41.00 | 47072 | 72646 4 | 16:08.47 | 3:42.00 | 72647 | 89296 5 | 19:50.47 | 3:38.00 | 89297 | 105646 6 | 23:28.47 | 4:37.63 | 105647 | 126484 7 | 28:06.35 | 4:16.20 | 126485 | 145704 8 | 32:22.55 | 4:22.30 | 145705 | 165384 9 | 36:45.10 | 5:27.50 | 165385 | 189959 10 | 42:12.60 | 3:34.12 | 189960 | 206021 11 | 45:46.72 | 3:31.00 | 206022 | 221846 12 | 49:17.72 | 3:28.00 | 221847 | 237446 13 | 52:45.72 | 4:58.25 | 237447 | 259821 14 | 57:44.22 | 3:32.13 | 259822 | 275734 15 | 61:16.35 | 2:51.00 | 275735 | 288559

Track 1

Filename V:\EAX\01 - Soulwax & The Rolling Stones - You Can't Always Get What You Want.wav

Pre-gap length 0:00:02.00

Peak level 90.0 % Track quality 100.0 % Test CRC CB39B9F3 Copy CRC CB39B9F3 Copy OK

Track 2

Filename V:\EAX\02 - MGMT - Time to Pretend.wav

Peak level 94.3 % Track quality 100.0 % Test CRC 84C82785 Copy CRC 84C82785 Copy OK

Track 3

Filename V:\EAX\03 - LCD Soundsystem - Big Ideas.wav

Pre-gap length 0:00:00.30

Peak level 96.5 % Track quality 100.0 % Test CRC 6FA52234 Copy CRC 6FA52234 Copy OK

Track 4

Filename V:\EAX\04 - David Sardy feat. Liela Moss - Giant.wav

Pre-gap length 0:00:00.62

Peak level 98.7 % Track quality 100.0 % Test CRC CD1815AF Copy CRC CD1815AF Copy OK

Track 5

Filename V:\EAX\05 - Amon Tobin - Always.wav

Pre-gap length 0:00:00.42

Peak level 94.3 % Track quality 100.0 % Test CRC AC69DE42 Copy CRC AC69DE42 Copy OK

Track 6

Filename V:\EAX\06 - Peter Bjorn and John - Young Folks.wav

Pre-gap length 0:00:00.42

Peak level 91.1 % Track quality 100.0 % Test CRC A0B78F9C Copy CRC A0B78F9C Copy OK

Track 7

Filename V:\EAX\07 - Junkie XL feat. Electrocute - Mad Pursuit.wav

Pre-gap length 0:00:00.50

Peak level 93.2 % Track quality 100.0 % Test CRC 31EF6A4A Copy CRC 31EF6A4A Copy OK

Track 8

Filename V:\EAX\08 - Get Shakes - Sister Self Doubt.wav

Pre-gap length 0:00:00.28

Peak level 93.2 % Track quality 100.0 % Test CRC A2519461 Copy CRC A2519461 Copy OK

Track 9

Filename V:\EAX\09 - The Aliens - I am the Unknown.wav

Pre-gap length 0:00:00.53

Peak level 92.1 % Track quality 100.0 % Test CRC A5E830FD Copy CRC A5E830FD Copy OK

Track 10

Filename V:\EAX\10 - Rihanna - Shut Up and Drive.wav

Pre-gap length 0:00:00.50

Peak level 95.3 % Track quality 99.9 % Test CRC B7565C00 Copy CRC B7565C00 Copy OK

Track 11

Filename V:\EAX\11 - Knivez Out - Alright.wav

Pre-gap length 0:00:00.42

Peak level 97.6 % Track quality 100.0 % Test CRC 4D471996 Copy CRC 4D471996 Copy OK

Track 12

Filename V:\EAX\12 - Domino - Tropical Moonlight.wav

Pre-gap length 0:00:00.45

Peak level 92.1 % Track quality 100.0 % Test CRC CDD5577A Copy CRC CDD5577A Copy OK

Track 13

Filename V:\EAX\13 - Unkle - Hold My Hand.wav

Pre-gap length 0:00:00.50

Peak level 92.1 % Track quality 100.0 % Test CRC FEDED301 Copy CRC FEDED301 Copy OK

Track 14

Filename V:\EAX\14 - Mark Ronson feat. Kasabian - L. S. F. (Lost Souls Forever).wav

Pre-gap length 0:00:00.60

Peak level 91.4 % Track quality 99.9 % Test CRC 7A56A5AA Copy CRC 7A56A5AA Copy OK

Track 15

Filename V:\EAX\15 - Broadcast - Tender Buttons.wav

Pre-gap length 0:00:00.60

Peak level 95.3 % Track quality 99.9 % Test CRC D1B19FB6 Copy CRC D1B19FB6 Copy OK

No errors occurred

End of status report
[Verification date: 27.9.9 3:2:8]
[Disc ID: 00258614-01a24640-f40f070f]
Track [ CRC    ] Status
01    [878ab043] (07/09) Accurately ripped as in pressing(s) #1
02    [bfd1bf02] (06/08) Accurately ripped as in pressing(s) #1
03    [ae3d8699] (06/08) Accurately ripped as in pressing(s) #1
04    [a84e938d] (06/08) Accurately ripped as in pressing(s) #1
05    [9d924e1c] (06/08) Accurately ripped as in pressing(s) #1
06    [a7ceb41c] (06/08) Accurately ripped as in pressing(s) #1
07    [d98ad163] (06/08) Accurately ripped as in pressing(s) #1
08    [4522925d] (06/08) Accurately ripped as in pressing(s) #1
09    [61741f49] (06/08) Accurately ripped as in pressing(s) #1
10    [7be4a978] (06/08) Accurately ripped as in pressing(s) #1
11    [7f0847f8] (06/08) Accurately ripped as in pressing(s) #1
12    [d7f02c89] (06/08) Accurately ripped as in pressing(s) #1
13    [a29b71f8] (06/08) Accurately ripped as in pressing(s) #1
14    [1d8822ab] (07/09) Accurately ripped as in pressing(s) #1
15    [f6629e81] (06/08) Accurately ripped as in pressing(s) #1
Offsetted by 36:
01    [7c3fafaf] (02/09) Accurately ripped as in pressing(s) #2
02    [403fa953] (02/08) Accurately ripped as in pressing(s) #2
03    [91792b1c] (02/08) Accurately ripped as in pressing(s) #2
04    [5f36c427] (02/08) Accurately ripped as in pressing(s) #2
05    [4f6c806e] (02/08) Accurately ripped as in pressing(s) #2
06    [5b7637c2] (02/08) Accurately ripped as in pressing(s) #2
07    [3b418098] (02/08) Accurately ripped as in pressing(s) #2
08    [004e4841] (02/08) Accurately ripped as in pressing(s) #2
09    [e48c1a9f] (02/08) Accurately ripped as in pressing(s) #2
10    [598e63e7] (02/08) Accurately ripped as in pressing(s) #2
11    [da8921f9] (02/08) Accurately ripped as in pressing(s) #2
12    [a1e38210] (02/08) Accurately ripped as in pressing(s) #2
13    [687e846a] (02/08) Accurately ripped as in pressing(s) #2
14    [c28435a5] (02/09) Accurately ripped as in pressing(s) #2
15    [581fc214] (02/08) Accurately ripped as in pressing(s) #2

Track [ CRC32  ]    [W/O NULL]
--    [AC8A4B59]    [DFF602C3]
01    [CB39B9F3]    [F740488B]
02    [84C82785]    [A97908B7]
03    [6FA52234]    [C1BD4458]
04    [CD1815AF]    [CAC6BCA0]
05    [AC69DE42]    [02E6742F]
06    [A0B78F9C]    [E41ABDF8]
07    [31EF6A4A]    [0F074350]
08    [A2519461]    [DB62F517]
09    [A5E830FD]    [842FDCB7]
10    [B7565C00]    [1556E949]
11    [4D471996]    [5A702771]
12    [CDD5577A]    [00365E2B]
13    [FEDED301]    [4CBBB86B]
14    [7A56A5AA]    [5F696F65]
15    [D1B19FB6]    [D531C952]


Трекер:  [ 21-Май-2017 21:00 ]

  

Скачать .torrent

Размер .torrent файла 36 KB


Размер: 443 MB
Хэш (hash) релиза: 692d1ea25bdb80bd0f31ee92593d58bd42fc44ce

Еще никто не оставлял запись к записи скачать торрент Двадцать одно 21 — Rihanna, Unkle, Amon Tobin, MGMT, Soulwax & Various — 2008, FLAC . Будь первым!

!Обратная связь