Скачать через торрент Форма голоса Koe no Katachi бесплатно Аниме Все серии на русском torrent

Если у вас наблюдаются проблемы со скриншотами, переходом по ссылками, скачиванием торрентов - проблемы в блокировщике рекламы AdBlock. #хорошегоДня!


Статистика раздачи
Размер:  32.18 GB   |    Зарегистрирован:  5 месяцев 3 дня   |    .torrent скачан:  21 раз   |   
Раздают:  1  
   
Загрузка...
 
Автор Сообщение

Galfimbul

avatar Galfimbul


<hr class="post-hr">
Год выпуска: 2016 | Страна: Япония
Жанр: драма, школа
Продолжительность: фильм, 130 мин.<hr class="post-hr">Перевод: субтитры от drnndy <hr class="post-hr">Режиссер: Ямада Наоко

Студия:

<hr class="post-hr"> AniDB World Art MAL<hr class="post-hr">Качество: BDRemux
Тип релиза: без хардсаба, без линковки
Формат видео: MKV
Видео: x264, 8 bit, 1920x1080, 23.976fps, 27 Mbps
Аудио JAP: FLAC, 48.0 kHz, 2.0 ch, 24 bit, 1,2 Mbps
Аудио JAP (ext): FLAC, 48.0 kHz, 5.1 ch, 24 bit, 3 Mbps
Аудио JAP (ext): Opus, 48.0 kHz, 2.0 ch, 128 Kbps [Silent]
Аудио JAP (ext): Opus, 48.0 kHz, 2.0 ch, 128 Kbps [Commentary] <hr class="post-hr">Описание: Подобно миру взрослых, мир детей не терпит различий, выделяющих кого-то на фоне других, коих принято считать «нормальными». Этот мир жесток, поскольку его обитатели, в отличие от обитателей мира взрослых, еще не успели научиться скрывать мерзкие мысли за напускной улыбкой. Многие вещи им непонятны, более того — неведомы. Дети прямолинейны. И поэтому очень жестоки.
Однако все дети когда-нибудь вырастают. И оглядываясь назад, во времена школьной рутины, некоторым из них становится стыдно за свою юность.
Сложно представить, сколько лет должно пройти, пока до примерного задиры и разгильдяя дойдет, каким глупцом он был, когда веселья ради издевался над инвалидом. Кто-то об этом даже не вспомнит. А кто-то вроде Шои возненавидит себя крепкой ненавистью. В младшей школе он умудрился превратить жизнь одноклассницы по имени Шоко в ад. Только потому, что та была глухая, не как все. И теперь, несколько лет спустя, хоть и запоздало, но мальчишка понял: чтобы сказать нечто важное тому, кто не может тебя услышать, вовсе не обязательно использовать голос.
GeneralUnique ID : 238396157621020580170393385365560744124 (0xB3596E0B3BEBF0B8A3A850D204FDD8BC)Complete name : u:\anime end\Koe no Katachi [BDRemux]\Koe no Katachi [BDRemux].mkvFormat : MatroskaFormat version : Version 4 / Version 2File size : 25.6 GiBDuration : 2 h 10 minOverall bit rate mode : VariableOverall bit rate : 28.1 Mb/sEncoded date : UTC 2017-05-18 21:59:24Writing application : mkvmerge v11.0.0 ('Alive') 64bitWriting library : libebml v1.3.4 + libmatroska v1.4.5

VideoID : 1Format : AVCFormat/Info : Advanced Video CodecFormat profile : High@L4.1Format settings, CABAC : YesFormat settings, ReFrames : 4 framesCodec ID : V_MPEG4/ISO/AVCDuration : 2 h 10 minBit rate mode : VariableBit rate : 26.9 Mb/sMaximum bit rate : 29.0 Mb/sWidth : 1 920 pixelsHeight : 1 080 pixelsDisplay aspect ratio : 16:9Frame rate mode : ConstantFrame rate : 23.976 (24000/1001) FPSColor space : YUVChroma subsampling : 4:2:0Bit depth : 8 bitsScan type : ProgressiveBits/(Pixel*Frame) : 0.541Stream size : 24.4 GiB (96%)Default : YesForced : No

AudioID : 2Format : FLACFormat/Info : Free Lossless Audio CodecCodec ID : A_FLACDuration : 2 h 10 minBit rate mode : VariableBit rate : 1 201 kb/sChannel(s) : 2 channelsChannel positions : Front: L RSampling rate : 48.0 kHzFrame rate : 11.719 FPS (4096 spf)Bit depth : 24 bitsStream size : 1.09 GiB (4%)Title : LPCM->FLACWriting library : libFLAC 1.3.2 (UTC 2017-01-01)Language : JapaneseDefault : YesForced : No

TextID : 3Format : PGSMuxing mode : zlibCodec ID : S_HDMV/PGSCodec ID/Info : Picture based subtitle format used on BDs/HD-DVDsDuration : 2 h 9 minBit rate : 24.4 kb/sCount of elements : 4665Stream size : 22.6 MiB (0%)Language : JapaneseDefault : YesForced : No

Menu00:00:00.000 : en:Beginning00:13:10.080 : en:Ballad of the monster00:22:55.374 : en:Reunion00:34:50.338 : en:Reason for the meeting00:44:34.171 : en:Little sister00:53:08.143 : en:Sahara and Ueno01:03:58.709 : en:Ponytail01:15:37.282 : en:Self-hatred01:30:03.189 : en:What should I do?01:44:33.600 : en:Don't cry, Nishimiya01:56:25.812 : en:The shape of voice02:05:56.048 : en:Ending
...5357427
...5405232
BDRemux
</div><!--/post_body-->

Трекер:  [ 20-Май-2017 13:00 ]

  

Скачать .torrent

Размер .torrent файла 41 KB


Размер: 32.18 GB
Хэш (hash) релиза: 991986cc185381c9ea712cadbce11b4d0f75f438
Подписка на обновления:

Торренты, похожие на Форма голоса Koe no Katachi скачать торрент

Форум Название Автор Размер S L Добавлен
Аниме | HD Rips ·· Форма голоса / Koe no Katachi / A Silent Voice [Movie] [Без хардсаба] [[RUS(ext),JAP+SUB] [2016, драма, школа, BDRip] [1080p] Galfimbul 1155293049310.76 GB 0 0 1497124956

23:02

10-Июн-17

Аниме | Rips ·· Форма голоса / Koe no Katachi / A Silent Voice [Movie] [Без хардсаба] [RUS(ext),JAP+SUB] [2016, драма, школа, BDRip] [720p] Galfimbul 57457785205.35 GB 0 0 1496964650

02:30

9-Июн-17

Аниме | Rips ·· Форма голоса / Koe no Katachi / A Silent Voice [Movie] [Без хардсаба] [RUS(ext),JAP+SUB] [2016, драма, школа, BDRip] [1080p] Galfimbul 1163722759310.84 GB 0 0 1496964620

02:30

9-Июн-17

Аниме | HD Rips ·· Форма голоса / Koe no Katachi / A Silent Voice [Movie] [Без хардсаба] [RUS(ext),JAP+SUB] [2016, драма, школа, BDRemux] [1080p] Galfimbul 3475702357332.37 GB 0 0 1495664051

01:14

25-Май-17

Аниме | HD Rips ·· Форма голоса / Koe no Katachi / A Silent Voice [Movie] [Без хардсаба] [RUS(ext), JAP, SUB] [2016, Повседневность, Драма, Романтика, Школа, Сёнен, BDRip] [720p] Galfimbul 55389881345.16 GB 0 0 1495550626

17:43

23-Май-17

Аниме | HD Rips ·· Форма голоса / Koe no Katachi / A Silent Voice [Movie] [Без хардсаба] [JAP+SUB] [2016, драма, школа, BDRip] [1080p] Galfimbul 1113164733910.37 GB 0 0 1495279058

14:17

20-Май-17

Аниме | HD Rips ·· Форма голоса / Eiga Koe no Katachi / A Silent Voice / The Shape of Voice / Очертания голоса / Беззвучный голос (Ямада Наоко) [Movie] [Без хардсаба] [RUS(ext), JAP+SUB] [2016, драма, школа, BDRip] [1080p] Galfimbul 1180839385911 GB 0 0 1495561713

20:48

23-Май-17

Аниме | HD Rips ·· Форма голоса / Eiga Koe no Katachi / A Silent Voice / The Shape of Voice / Очертания голоса / Беззвучный голос (Ямада Наоко) [Movie] [Без хардсаба] [JAP+SUB] [2016, драма, школа, BDRip] [720p] Galfimbul 54207285145.05 GB 0 0 1495279062

14:17

20-Май-17

Аниме | HD Rips ·· Форма голоса / Eiga Koe no Katachi / A Silent Voice / The Shape of Voice / Очертания голоса / Беззвучный голос (Ямада Наоко) [Movie] [Без хардсаба] [JAP+SUB] [2016, драма, школа, BDRip] [1080p] Galfimbul 1162110565010.82 GB 0 0 1495279054

14:17

20-Май-17

Аниме | HD Rips ·· Форма голоса / Eiga Koe no Katachi / A Silent Voice / The Shape of Voice [Movie] [Без хардсаба] [RUS(int), JAP+SUB] [2016, повседневность, драма, романтика, школа, сёнен, BDRip] [720p] Galfimbul 44850765674.18 GB 0 0 1497124966

23:02

10-Июн-17

Аниме | Rips ·· Форма голоса / Eiga Koe no Katachi / A Silent Voice [Movie] [Без хардсаба] [RUS(int), JAP+SUB] [2016, повседневность, драма, романтика, BDRip] [HWP] Galfimbul 16486238051.54 GB 0 0 1503414123

18:02

22-Авг-17

Еще никто не оставлял запись к записи скачать торрент Форма голоса Koe no Katachi . Будь первым!

!Обратная связь