Скачать через торрент Идеаль Lid?al Фильм бесплатно в хорошем качестве torrent

Скачивайте на UnionPeer.org фильмы через торрент без регистрации. Новинки кино в хорошем качестве через торрент. На UnionPeer.org можно скачать через торрент фильмы 2014 и 2015 годов. Самые новые фильмы.

Скачать торрент Идеаль Lid?al бесплатно через .torrent фильм мультфильм сериал

Статистика раздачи
Размер:  3.16 GB   |    Зарегистрирован:  6 дней   |    .torrent скачан:  137 раз   |   
Раздают:  5  
   
 
Автор Сообщение

Galfimbul

avatar Galfimbul


Идеаль /L'id?al

Год выхода: 2016
Жанр: комедия
Режиссер: Фредерик Бегбедер

В ролях: Гаспар Пруст, Одри Флеро, Анамария Вартоломей, Джонатан Ламбер, Камилль Роу, Саболч Альб, Ксавье Алькан, Клеман Андре, Том Ауденарт, Николет Барабас

О фильме: «Американки слишком здоровые, француженки слишком капризные, немки слишком спортивные, японки слишком покорные, итальянки слишком ревнивые, англичанки слишком пьющие, голландки слишком раскрепощенные, испанки слишком томные! Остаются русские, обладающие особой красотой и необъяснимой властью над людьми». - в этом был убежден Октав, скаут крупнейшей косметической компании «Идеаль», отправляясь в Россию.



Страна: Франция
Студия: L?gende Films, Le 12e Art
Продолжительность: 01:31:20
Перевод: Дублированный | iTunes

Файл
Качество: WEB-DL 1080p
Формат: MKV
Видео кодек: H.264
Аудио кодек: AC3
Видео: 1920x804 (2.40:1), 24.000 fps, AVC MPEG-4 (x264), High@L4, ~ 4568 kbps avg, 0.123 bit/pixel
Аудио: 48 kHz, AC3 Dolby Digital, 3/2 (L,C,R,l,r) + LFE ch, ~384 kbps
Субтитры: Нет

Рекламы нет
General
Unique ID : 179442685207881339010751089590638343450 (0x86FF677169FF67799E239A531545F51A)
Complete name : D:TorrentIdeaLL.2O17.D.WEB-DL.1080p.mkv
Format : Matroska
Format version : Version 4 / Version 2
File size : 3.16 GiB
Duration : 1 h 31 min
Overall bit rate : 4 954 kb/s
Movie name : MoreFilms
Encoded date : UTC 2017-05-19 18:44:59
Writing application : mkvmerge v11.0.0 ('Alive') 64bit
Writing library : libebml v1.3.4 + libmatroska v1.4.5

Video
ID : 1
Format : AVC
Format/Info : Advanced Video Codec
Format profile : High@L4
Format settings, CABAC : Yes
Format settings, ReFrames : 5 frames
Codec ID : V_MPEG4/ISO/AVC
Duration : 1 h 31 min
Bit rate : 4 568 kb/s
Width : 1 920 pixels
Height : 804 pixels
Display aspect ratio : 2.40:1
Frame rate mode : Constant
Frame rate : 24.000 FPS
Color space : YUV
Chroma subsampling : 4:2:0
Bit depth : 8 bits
Scan type : Progressive
Bits/(Pixel*Frame) : 0.123
Stream size : 2.91 GiB (92%)
Language : English
Default : Yes
Forced : No
Color range : Limited
Color primaries : BT.709
Transfer characteristics : BT.709
Matrix coefficients : BT.709

Audio
ID : 2
Format : AC-3
Format/Info : Audio Coding 3
Format settings, Endianness : Big
Codec ID : A_AC3
Duration : 1 h 31 min
Bit rate mode : Constant
Bit rate : 384 kb/s
Channel(s) : 6 channels
Channel positions : Front: L C R, Side: L R, LFE
Sampling rate : 48.0 kHz
Frame rate : 31.250 FPS (1536 spf)
Bit depth : 16 bits
Compression mode : Lossy
Stream size : 251 MiB (8%)
Language : Russian
Service kind : Complete Main
Default : Yes
Forced : No

Menu
00:00:00.000 : en:Глава 1
00:06:41.625 : en:Глава 2
00:12:51.041 : en:Глава 3
00:17:23.041 : en:Глава 4
00:22:19.874 : en:Глава 5
00:27:44.124 : en:Глава 6
00:34:13.040 : en:Глава 7
00:39:08.415 : en:Глава 8
00:45:32.748 : en:Глава 9
00:52:02.456 : en:Глава 10
00:58:40.956 : en:Глава 11
01:03:58.706 : en:Глава 12
01:10:08.747 : en:Глава 13
01:15:38.830 : en:Глава 14
01:21:08.663 : en:Глава 15


Трекер:  [ 19-Май-2017 23:30 ]

  

Скачать .torrent

Размер .torrent файла 16 KB


Размер: 3.16 GB
Хэш (hash) релиза: 4468f760bb36c8f7e9fbbb59616c9f1816dee704
Подписка на обновления:

Торренты, похожие на Идеаль Lid?al скачать торрент

Форум Название Автор Размер S L Добавлен
Зарубежные фильмы 2016-2017 (Новинки зарубежного кино) ·· Идеаль / L'id?al (Фредерик Бегбедер) [2016, комедия, WEB-DLRip] iTunes Galfimbul 14673960961.37 GB 3 0 1495226682

23:44

19-Май-17

Зарубежные фильмы 2016-2017 (Новинки зарубежного кино) ·· Идеаль / L'id?al (Фредерик Бегбедер) [2016, драма, комедия, приключения, CAMRip] Galfimbul 14679326721.37 GB 0 0 1493658816

20:13

1-Май-17

Еще никто не оставлял запись к записи скачать торрент Идеаль Lid?al . Будь первым!

!Обратная связь