Скачать через торрент музыку Чужой: Завет Alien: Covenant бесплатно без регистрации torrent

Если у вас наблюдаются проблемы со скриншотами, переходом по ссылками, скачиванием торрентов - проблемы в блокировщике рекламы AdBlock. #хорошегоДня!


Статистика раздачи
Размер:  261 MB   |    Зарегистрирован:  4 месяца 3 дня   |    .torrent скачан:  27 раз   |   
Раздают:  1  
   
Загрузка...
 
Автор Сообщение

Galfimbul

avatar Galfimbul


Чужой: Завет / Alien: Covenant

Название альбома: Alien: Covenant
Жанр: Score
Композитор: Jed Kurzel
Год выпуска диска: 2017
Год выпуска фильма: 2017
Производитель диска: France
Издатель (лейбл): Milan Music France
Номер по каталогу: 399 914-2
Аудиокодек: FLAC
Тип рипа: tracks+.cue
Битрейт аудио: lossless
Продолжительность: 00:59:08
Источник: Спасибо, Filex
Наличие сканов в содержимом раздачи: да (только обложки)
01. Jed Kurzel - Incubation (1:07)
02. Jed Kurzel - The Covenant (3:25)
03. Jed Kurzel - Neutrino Burst (2:57)
04. Jed Kurzel - A Cabin on the Lake (1:56)
05. Jed Kurzel - Sails (3:19)
06. Jed Kurzel - Planet 4 (Main Theme) (2:06)
07. Jed Kurzel - Launcher Landing (1:20)
08. Jed Kurzel - Wheat Field (1:40)
09. Jed Kurzel - Spores (2:18)
10. Jed Kurzel - The Med Bay (7:25)
11. Jed Kurzel - Grass Attack (3:16)
12. Jed Kurzel - Dead Civilization (2:51)
13. Jed Kurzel - Survivors (1:36)
14. Jed Kurzel - Payload Deployment (1:47)
15. Jed Kurzel - Command Override (1:48)
16. Jed Kurzel - Face Hugger (3:56)
17. Jed Kurzel - Chest Burster (1:24)
18. Jed Kurzel - Lonely Perfection (3:22)
19. Jed Kurzel - Cargo Lift (4:45)
20. Jed Kurzel - Bring It to My Turf (2:06)
21. Jed Kurzel - Terraforming Bay (3:02)
22. Jed Kurzel - Alien Covenant Theme (1:42)
Exact Audio Copy V1.3 from 2. September 2016

EAC extraction logfile from 18. May 2017, 13:28

Jed Kurzel / Alien: Covenant

Used drive : PLEXTOR CD-R PX-230A Adapter: 1 ID: 0

Read mode : SecureUtilize accurate stream : YesDefeat audio cache : YesMake use of C2 pointers : No

Read offset correction : 738Overread into Lead-In and Lead-Out : NoFill up missing offset samples with silence : YesDelete leading and trailing silent blocks : NoNull samples used in CRC calculations : YesUsed interface : Native Win32 interface for Win NT & 2000Gap handling : Appended to previous track

Used output format : User Defined EncoderSelected bitrate : 1024 kBit/sQuality : HighAdd ID3 tag : NoCommand line compressor : C:\Program Files\Exact Audio Copy\Flac\flac.exeAdditional command line options : -6 -V -T "ARTIST=%artist%" -T "TITLE=%title%" -T "ALBUM=%albumtitle%" -T "DATE=%year%" -T "TRACKNUMBER=%tracknr%" -T "GENRE=%genre%" -T "COMMENT=%comment%" -T "ALBUMARTIST=%albuminterpret%" -T "COMPOSER=%composer%" -T "DISCNUMBER=%cdnumber%" -T "TOTALDISCS=%totalcds%" -T "TOTALTRACKS=%numtracks%" %source% -o %dest%

TOC of the extracted CD

Track | Start | Length | Start sector | End sector --------------------------------------------------------- 1 | 0:00.00 | 1:07.36 | 0 | 5060 2 | 1:07.36 | 3:25.16 | 5061 | 20451 3 | 4:32.52 | 2:57.34 | 20452 | 33760 4 | 7:30.11 | 1:55.49 | 33761 | 42434 5 | 9:25.60 | 3:18.56 | 42435 | 57340 6 | 12:44.41 | 2:06.06 | 57341 | 66796 7 | 14:50.47 | 1:19.50 | 66797 | 72771 8 | 16:10.22 | 1:39.38 | 72772 | 80234 9 | 17:49.60 | 2:17.51 | 80235 | 90560 10 | 20:07.36 | 7:25.10 | 90561 | 123945 11 | 27:32.46 | 3:16.20 | 123946 | 138665 12 | 30:48.66 | 2:51.06 | 138666 | 151496 13 | 33:39.72 | 1:35.61 | 151497 | 158682 14 | 35:15.58 | 1:46.39 | 158683 | 166671 15 | 37:02.22 | 1:47.60 | 166672 | 174756 16 | 38:50.07 | 3:56.34 | 174757 | 192490 17 | 42:46.41 | 1:24.11 | 192491 | 198801 18 | 44:10.52 | 3:21.71 | 198802 | 213947 19 | 47:32.48 | 4:44.48 | 213948 | 235295 20 | 52:17.21 | 2:05.41 | 235296 | 244711 21 | 54:22.62 | 3:02.13 | 244712 | 258374 22 | 57:25.00 | 1:42.20 | 258375 | 266044

Track 1

Filename C:\Ripped by Filex\01 - Incubation.wav

Pre-gap length 0:00:02.00

Peak level 90.8 % Extraction speed 2.4 X Track quality 100.0 % Test CRC 7CD8D141 Copy CRC 7CD8D141 Track not present in AccurateRip database Copy OK

Track 2

Filename C:\Ripped by Filex\02 - The Covenant.wav

Peak level 99.0 % Extraction speed 2.9 X Track quality 100.0 % Test CRC DCC3A577 Copy CRC DCC3A577 Track not present in AccurateRip database Copy OK

Track 3

Filename C:\Ripped by Filex\03 - Neutrino Burst.wav

Peak level 99.0 % Extraction speed 3.0 X Track quality 100.0 % Test CRC 92BECB50 Copy CRC 92BECB50 Track not present in AccurateRip database Copy OK

Track 4

Filename C:\Ripped by Filex\04 - A Cabin on the Lake.wav

Peak level 45.0 % Extraction speed 2.9 X Track quality 100.0 % Test CRC 82AE6384 Copy CRC 82AE6384 Track not present in AccurateRip database Copy OK

Track 5

Filename C:\Ripped by Filex\05 - Sails.wav

Peak level 99.0 % Extraction speed 3.0 X Track quality 100.0 % Test CRC 2ACAECFE Copy CRC 2ACAECFE Track not present in AccurateRip database Copy OK

Track 6

Filename C:\Ripped by Filex\06 - Planet 4 (Main Theme).wav

Peak level 98.8 % Extraction speed 2.8 X Track quality 100.0 % Test CRC 1854E68D Copy CRC 1854E68D Track not present in AccurateRip database Copy OK

Track 7

Filename C:\Ripped by Filex\07 - Launcher Landing.wav

Peak level 92.5 % Extraction speed 2.2 X Track quality 99.8 % Test CRC 83D6A0EB Copy CRC 83D6A0EB Track not present in AccurateRip database Copy OK

Track 8

Filename C:\Ripped by Filex\08 - Wheat Field.wav

Peak level 49.9 % Extraction speed 2.8 X Track quality 100.0 % Test CRC 6A54BF22 Copy CRC 6A54BF22 Track not present in AccurateRip database Copy OK

Track 9

Filename C:\Ripped by Filex\09 - Spores.wav

Peak level 97.1 % Extraction speed 2.9 X Track quality 100.0 % Test CRC E3D85D16 Copy CRC E3D85D16 Track not present in AccurateRip database Copy OK

Track 10

Filename C:\Ripped by Filex\10 - The Med Bay.wav

Peak level 98.7 % Extraction speed 3.2 X Track quality 100.0 % Test CRC 9CE8D62A Copy CRC 9CE8D62A Track not present in AccurateRip database Copy OK

Track 11

Filename C:\Ripped by Filex\11 - Grass Attack.wav

Peak level 99.4 % Extraction speed 3.1 X Track quality 100.0 % Test CRC C221F44A Copy CRC C221F44A Track not present in AccurateRip database Copy OK

Track 12

Filename C:\Ripped by Filex\12 - Dead Civilization.wav

Peak level 98.9 % Extraction speed 3.0 X Track quality 100.0 % Test CRC 2261EA35 Copy CRC 2261EA35 Track not present in AccurateRip database Copy OK

Track 13

Filename C:\Ripped by Filex\13 - Survivors.wav

Peak level 86.9 % Extraction speed 2.8 X Track quality 100.0 % Test CRC E6B1CC96 Copy CRC E6B1CC96 Track not present in AccurateRip database Copy OK

Track 14

Filename C:\Ripped by Filex\14 - Payload Deployment.wav

Peak level 98.2 % Extraction speed 2.7 X Track quality 100.0 % Test CRC ADCA66CB Copy CRC ADCA66CB Track not present in AccurateRip database Copy OK

Track 15

Filename C:\Ripped by Filex\15 - Command Override.wav

Peak level 98.8 % Extraction speed 2.7 X Track quality 100.0 % Test CRC FCB7089A Copy CRC FCB7089A Track not present in AccurateRip database Copy OK

Track 16

Filename C:\Ripped by Filex\16 - Face Hugger.wav

Peak level 98.9 % Extraction speed 3.0 X Track quality 100.0 % Test CRC D9277057 Copy CRC D9277057 Track not present in AccurateRip database Copy OK

Track 17

Filename C:\Ripped by Filex\17 - Chest Burster.wav

Peak level 90.0 % Extraction speed 2.6 X Track quality 100.0 % Test CRC F7F5A4A7 Copy CRC F7F5A4A7 Track not present in AccurateRip database Copy OK

Track 18

Filename C:\Ripped by Filex\18 - Lonely Perfection.wav

Peak level 99.9 % Extraction speed 3.1 X Track quality 100.0 % Test CRC 5944240A Copy CRC 5944240A Track not present in AccurateRip database Copy OK

Track 19

Filename C:\Ripped by Filex\19 - Cargo Lift.wav

Peak level 98.3 % Extraction speed 3.0 X Track quality 100.0 % Test CRC E7BD7EEC Copy CRC E7BD7EEC Track not present in AccurateRip database Copy OK

Track 20

Filename C:\Ripped by Filex\20 - Bring It to My Turf.wav

Peak level 98.9 % Extraction speed 2.8 X Track quality 100.0 % Test CRC 9590A87A Copy CRC 9590A87A Track not present in AccurateRip database Copy OK

Track 21

Filename C:\Ripped by Filex\21 - Terraforming Bay.wav

Peak level 98.9 % Extraction speed 2.9 X Track quality 100.0 % Test CRC 034955AE Copy CRC 034955AE Track not present in AccurateRip database Copy OK

Track 22

Filename C:\Ripped by Filex\22 - Alien Covenant Theme.wav

Peak level 98.9 % Extraction speed 2.2 X Track quality 99.8 % Test CRC 71B3AE1E Copy CRC 71B3AE1E Track not present in AccurateRip database Copy OK

None of the tracks are present in the AccurateRip database

No errors occurred

End of status report

---- CUETools DB Plugin V2.1.6

[CTDB TOCID: 4nQ2XueF1FVOdiD0n.DlpUwSqh8-] foundSubmit result: 4nQ2XueF1FVOdiD0n.DlpUwSqh8- has been confirmedTrack | CTDB Status 1 | (1/1) Accurately ripped 2 | (1/1) Accurately ripped 3 | (1/1) Accurately ripped 4 | (1/1) Accurately ripped 5 | (1/1) Accurately ripped 6 | (1/1) Accurately ripped 7 | (1/1) Accurately ripped 8 | (1/1) Accurately ripped 9 | (1/1) Accurately ripped 10 | (1/1) Accurately ripped 11 | (1/1) Accurately ripped 12 | (1/1) Accurately ripped 13 | (1/1) Accurately ripped 14 | (1/1) Accurately ripped 15 | (1/1) Accurately ripped 16 | (1/1) Accurately ripped 17 | (1/1) Accurately ripped 18 | (1/1) Accurately ripped 19 | (1/1) Accurately ripped 20 | (1/1) Accurately ripped 21 | (1/1) Accurately ripped 22 | (1/1) Accurately ripped

==== Log checksum BF1797DAF75BD47FF1E20506BDC1BF36DA475289DBF00489CDAA0D41C21E009D ====
REM GENRE SoundtrackREM DATE 2017REM DISCID 330DDB16REM COMMENT "ExactAudioCopy v1.3"PERFORMER "Jed Kurzel"TITLE "Alien: Covenant"REM COMPOSER "Jed Kurzel"FILE "01 - Incubation.wav" WAVE TRACK 01 AUDIO TITLE "Incubation" PERFORMER "Jed Kurzel" REM COMPOSER "Jed Kurzel" INDEX 01 00:00:00FILE "02 - The Covenant.wav" WAVE TRACK 02 AUDIO TITLE "The Covenant" PERFORMER "Jed Kurzel" REM COMPOSER "Jed Kurzel" INDEX 01 00:00:00FILE "03 - Neutrino Burst.wav" WAVE TRACK 03 AUDIO TITLE "Neutrino Burst" PERFORMER "Jed Kurzel" REM COMPOSER "Jed Kurzel" INDEX 01 00:00:00FILE "04 - A Cabin on the Lake.wav" WAVE TRACK 04 AUDIO TITLE "A Cabin on the Lake" PERFORMER "Jed Kurzel" REM COMPOSER "Jed Kurzel" INDEX 01 00:00:00FILE "05 - Sails.wav" WAVE TRACK 05 AUDIO TITLE "Sails" PERFORMER "Jed Kurzel" REM COMPOSER "Jed Kurzel" INDEX 01 00:00:00FILE "06 - Planet 4 (Main Theme).wav" WAVE TRACK 06 AUDIO TITLE "Planet 4 (Main Theme)" PERFORMER "Jed Kurzel" REM COMPOSER "Jed Kurzel" INDEX 01 00:00:00FILE "07 - Launcher Landing.wav" WAVE TRACK 07 AUDIO TITLE "Launcher Landing" PERFORMER "Jed Kurzel" REM COMPOSER "Jed Kurzel" INDEX 01 00:00:00FILE "08 - Wheat Field.wav" WAVE TRACK 08 AUDIO TITLE "Wheat Field" PERFORMER "Jed Kurzel" REM COMPOSER "Jed Kurzel" INDEX 01 00:00:00FILE "09 - Spores.wav" WAVE TRACK 09 AUDIO TITLE "Spores" PERFORMER "Jed Kurzel" REM COMPOSER "Jed Kurzel" INDEX 01 00:00:00FILE "10 - The Med Bay.wav" WAVE TRACK 10 AUDIO TITLE "The Med Bay" PERFORMER "Jed Kurzel" REM COMPOSER "Jed Kurzel" INDEX 01 00:00:00FILE "11 - Grass Attack.wav" WAVE TRACK 11 AUDIO TITLE "Grass Attack" PERFORMER "Jed Kurzel" REM COMPOSER "Jed Kurzel" INDEX 01 00:00:00FILE "12 - Dead Civilization.wav" WAVE TRACK 12 AUDIO TITLE "Dead Civilization" PERFORMER "Jed Kurzel" REM COMPOSER "Jed Kurzel" INDEX 01 00:00:00FILE "13 - Survivors.wav" WAVE TRACK 13 AUDIO TITLE "Survivors" PERFORMER "Jed Kurzel" REM COMPOSER "Jed Kurzel" INDEX 01 00:00:00FILE "14 - Payload Deployment.wav" WAVE TRACK 14 AUDIO TITLE "Payload Deployment" PERFORMER "Jed Kurzel" REM COMPOSER "Jed Kurzel" INDEX 01 00:00:00FILE "15 - Command Override.wav" WAVE TRACK 15 AUDIO TITLE "Command Override" PERFORMER "Jed Kurzel" REM COMPOSER "Jed Kurzel" INDEX 01 00:00:00FILE "16 - Face Hugger.wav" WAVE TRACK 16 AUDIO TITLE "Face Hugger" PERFORMER "Jed Kurzel" REM COMPOSER "Jed Kurzel" INDEX 01 00:00:00FILE "17 - Chest Burster.wav" WAVE TRACK 17 AUDIO TITLE "Chest Burster" PERFORMER "Jed Kurzel" REM COMPOSER "Jed Kurzel" INDEX 01 00:00:00FILE "18 - Lonely Perfection.wav" WAVE TRACK 18 AUDIO TITLE "Lonely Perfection" PERFORMER "Jed Kurzel" REM COMPOSER "Jed Kurzel" INDEX 01 00:00:00FILE "19 - Cargo Lift.wav" WAVE TRACK 19 AUDIO TITLE "Cargo Lift" PERFORMER "Jed Kurzel" REM COMPOSER "Jed Kurzel" INDEX 01 00:00:00FILE "20 - Bring It to My Turf.wav" WAVE TRACK 20 AUDIO TITLE "Bring It to My Turf" PERFORMER "Jed Kurzel" REM COMPOSER "Jed Kurzel" INDEX 01 00:00:00FILE "21 - Terraforming Bay.wav" WAVE TRACK 21 AUDIO TITLE "Terraforming Bay" PERFORMER "Jed Kurzel" REM COMPOSER "Jed Kurzel" INDEX 01 00:00:00FILE "22 - Alien Covenant Theme.wav" WAVE TRACK 22 AUDIO TITLE "Alien Covenant Theme" PERFORMER "Jed Kurzel" REM COMPOSER "Jed Kurzel" INDEX 01 00:00:00
<hr class="post-hr">CD Release: 12 May 2017 (France)
Movie Release: 19 May 2017 (World)<hr class="post-hr">
Directed by Ridley Scott, Alien Covenant is the new exciting chapter in the worldwide acclaimed Alien franchise. Starring Danny McBride, Michael Fassbender, Billy Crudup, Katherine Waterston, Alien Covenant tells the story of the crew of the colony ship Covenant. Bound for a remote planet on the far side of the galaxy, they discover what they think is an uncharted paradise, but is actually a dark, dangerous world. When they uncover a threat beyond their imagination, they must attempt a harrowing escape.
Composer Jed Kurzel (Macbeth, Assassin’s Creed, Son Of A Gun) scored the haunting score to Alien Covenant. Integrating original elements from Jerry Goldsmith‘s score to Alien, Jed Kurzel has crafted a unique composition that mixes modern electronic elements with organic and classical elements from the first Alien.
20th Century Fox is releasing Alien Covenant in theaters on May 19,2017.
<hr class="post-hr"> <hr class="post-hr"> RG Soundtracks<hr class="post-hr"> </div><!--/post_body-->

Трекер:  [ 18-Май-2017 18:00 ]

  

Скачать .torrent

Размер .torrent файла 42 KB


Размер: 261 MB
Хэш (hash) релиза: 41a68bc6e780b70d5f8106a11399f888ac7b6f9d

Торренты, похожие на Чужой: Завет Alien: Covenant скачать торрент

Форум Название Автор Размер S L Добавлен
Саундтреки к фильмам и мультфильмам (lossless) ·· (Score) [WEB] Чужой: Завет / Alien: Covenant (Jed Kurzel) - 2017, FLAC (tracks), lossless Galfimbul 259410304247 MB 0 0 1494576734

11:12

12-Май-17

Саундтреки к фильмам и мультфильмам (lossless) ·· (Score) Чужой: Завет / Alien: Covenant (Jed Kurzel) - 2017, FLAC (tracks), lossless Galfimbul 256847707245 MB 0 0 1494022187

01:09

6-Май-17

Саундтреки к фильмам и мультфильмам (mp3) ·· (Score) Чужой: Завет / Alien: Covenant (Jed Kurzel) - 2017, MP3, 320 kbps Galfimbul 142817862136 MB 0 0 1493632094

12:48

1-Май-17

Еще никто не оставлял запись к записи скачать торрент Чужой: Завет Alien: Covenant . Будь первым!

!Обратная связь