Скачать через торрент Фуука Fuuka бесплатно Аниме Все серии на русском torrent

Если у вас наблюдаются проблемы со скриншотами, переходом по ссылками, скачиванием торрентов - проблемы в блокировщике рекламы AdBlock. #хорошегоДня!


Статистика раздачи
Размер:  26.27 GB   |    Зарегистрирован:  4 месяца 9 дней   |    .torrent скачан:  19 раз   |   
Раздают:  1  
   
Загрузка...
 
Автор Сообщение

Galfimbul

avatar Galfimbul


Фуука / Fuuka

Год выпуска: 2017
Страна: Япония
Жанр: романтика
Тип: TV
Продолжительность: 12 эп. по 24 мин.
Озвучка:

Двухголосая (муж/жен) от Soer & MezIdA (DeadLine Studio)

Русские субтитры: есть (отдельным файлом, формат .ass)
Перевод:

Yoite, gansh [AOS]
Semyon44
Aexks, Luaine, Kagamin, Satsuki, Felgolm [SoraSubs]

Хардсаб: Нет<hr class="post-hr">Режиссер: Кусакава Кэйдзо
Студия: Studio Barcelona

Описание: Простой и застенчивый Ю Харуна недавно переехал в новый город. После переезда он оказался буквально затянут в Твиттер, в котором юноша начал делиться разными мелочами из своей жизни.

Однажды, на уткнувшегося носом в свой телефон и обновлявшего ленту новостей Ю случайно налетает девушка по имени Фука Акицуки. В результате происходит неловкий случай: девушка по ошибке принимает парня за извращенца, фотографирующего ее нижнее белье, и в эмоциях разбивает его телефон. Успокоившись, оба выясняют, что учатся в одной школе и, более того, являются одноклассниками.

Познакомившись с Фукой поближе, Ю понимает, что она совсем не похожа на остальную молодежь. У нее нет мобильного телефона, и она не «зависает», как все, в социальных сетях. Акицуки любит музыку и увлекает одинокого Харуну вслед за своей страстью, чтобы показать, что мир существует не только на экране мобильного телефона.
© Shikimori

Качество: Blu-Ray Remux
Формат: MKV
Видео кодек: AVC
Аудио кодек: FLAC
Видео: 1920x1080 (16:9) 23,976 fps ~34,5 Mbps 8bit
Аудио:
Jap FLAC, 48000Hz, ~1468 Kbps, 2ch
RUS (ext) AAC, 48000Hz, ~192 Kbps, 2ch

Чаптеры присутствуют.
01. Фуука
02. Взлететь!
03. Треугольник
04. Выступление!
05. Наша подруга!
06. Хинаси Коюки!
07. Треск!
08. Топ!
09. Свидание!
10. Судьба
11. Группа
12. Попутный ветер
Общее
Уникальный идентификатор : 197494921799358201107900953835895934950 (0x9494236C98596A57BCB478F3C4064FE6)
Полное имя : Z:\Anime Release - working\Fuuka\[anti-raws]Fuuka ep.01[BDRemux].mkv
Формат : Matroska
Версия формата : Version 4 / Version 2
Размер файла : 6,23 Гбайт
Продолжительность : 24 м. 11 с.
Режим общего битрейта : Переменный
Общий поток : 36,9 Мбит/сек
Дата кодирования : UTC 2017-05-14 15:37:10
Программа кодирования : mkvmerge v11.0.0 ('Alive') 64bit
Библиотека кодирования : libebml v1.3.4 + libmatroska v1.4.5

Видео
Идентификатор : 2
Формат : AVC
Формат/Информация : Advanced Video Codec
Профиль формата : High@L4.1
Параметр CABAC формата : Да
Параметр ReFrames формата : 4 кадра
Идентификатор кодека : V_MPEG4/ISO/AVC
Продолжительность : 24 м. 11 с.
Вид битрейта : Переменный
Битрейт : 35,4 Мбит/сек
Максимальный битрейт : 40,0 Мбит/сек
Ширина : 1920 пикселей
Высота : 1080 пикселей
Соотношение сторон : 16:9
Режим частоты кадров : Постоянный
Частота кадров : 23,976 (24000/1001) кадра/сек
Цветовое пространство : YUV
Субдискретизация насыщенности : 4:2:0
Битовая глубина : 8 бит
Тип развёртки : Прогрессивная
Бит/(Пиксели*Кадры) : 0.712
Размер потока : 5,99 Гбайт (96%)
Default : Нет
Forced : Нет

Аудио
Идентификатор : 1
Формат : FLAC
Формат/Информация : Free Lossless Audio Codec
Идентификатор кодека : A_FLAC
Продолжительность : 24 м. 11 с.
Вид битрейта : Переменный
Битрейт : 1467 Кбит/сек
Каналы : 2 канала
Расположение каналов : Front: L R
Частота : 48,0 КГц
Частота кадров : 11,719 кадров/сек (4096 spf)
Битовая глубина : 24 бит
Размер потока : 254 Мбайт (4%)
Библиотека кодирования : libFLAC 1.2.1 (UTC 2007-09-17)
Язык : Japanese
Default : Да
Forced : Нет

Меню
00:00:00.000 : en:00:00:00.000
00:02:27.522 : en:00:02:27.522
00:03:57.529 : en:00:03:57.529
00:14:56.521 : en:00:14:56.521
00:22:18.546 : en:00:22:18.546
00:23:48.510 : en:00:23:48.510
00:24:05.569 : en:00:24:05.569
...5358890
...5338398
--WEBRip

...5397453
...5397684
--BDRip

Эта раздача - BDRemux
</div><!--/post_body-->

Трекер:  [ 14-Май-2017 19:00 ]

  

Скачать .torrent

Размер .torrent файла 35 KB


Размер: 26.27 GB
Хэш (hash) релиза: 24e9da4359eeb036ec91537c471c0e945e631629
Подписка на обновления:

Торренты, похожие на Фуука Fuuka скачать торрент

Форум Название Автор Размер S L Добавлен
Аниме | Rips ·· Фуука / Fuuka [TV] [12 из 12] [Без хардсаба] [RUS(int), JAP+SUB] [2017, романтика, музыкальный, HDTVRip] [HWP] Galfimbul 32256368073 GB 0 0 1496964124

02:22

9-Июн-17

Аниме | HD Rips ·· Фуука / Fuuka (Кусакава Кэйдзо) [TV] [2 из 12] [без хардсаба] [RUS(ext), JAP+SUB] [2017, романтика, BDRip] [720p] Galfimbul 12428067001.16 GB 0 0 1493835361

21:16

3-Май-17

Аниме | HD Rips ·· Фуука / Fuuka [TV] [2 из 12] [Без хардсаба] [RUS(ext), JAP+SUB] [2017, комедия, романтика, этти, музыкальный, драма, школа, сёнэн, BDRip] [1080p] Galfimbul 41221068143.84 GB 0 0 1493783931

06:58

3-Май-17

Аниме | HD Rips ·· Фуука / Fuuka (Кусакава Кэйдзо) [TV] [1-7 из 12] [Без хардсаба] [RUS(ext), JAP+SUB] [2017, комедия, романтика, музыкальный, драма, школа, WEBRip] [1080p] Galfimbul 42867288493.99 GB 0 0 1487355502

21:18

17-Фев-17

Аниме | Rips ·· Фуука / Fuuka (Кусакава Кэйдзо) [TV] [1-2 из 12] [Без хардсаба] [RUS(int), JAP+SUB] [2017, комедия, романтика, HDTVRip] [720p] Galfimbul 664381053634 MB 0 0 1485106981

20:43

22-Янв-17

Аниме | Rips ·· Фуука / Fuuka [TV] [01-03 из >12] [Без хардсаба] [RUS(int), JAP+SUB] [2017, романтика, музыкальный, драма, этти, HDTVRip] [HWP] Galfimbul 803699219766 MB 0 0 1484628962

07:56

17-Янв-17

Аниме | Rips ·· Фуука / Fuuka [TV] [01-02 из 12] [Без хардсаба] [RUS(ext), JAP, SUB] [2017, Драма, Музыка, Романтика, Школа, Сёнен, Этти, HDTVRip] [720p] Galfimbul 761795569727 MB 0 0 1484186243

04:57

12-Янв-17

Аниме | HD Rips ·· Фуука / Fuuka (Кусакава Кэйдзо) [TV] [1-2 из 12] [Без хардсаба] [RUS(ext), JAP+SUB] [2017, комедия, романтика, драма, школа, WEBRip] [1080p] Galfimbul 12261721711.14 GB 0 0 1484045929

13:58

10-Янв-17

Аниме | HD Rips ·· Фуука / Fuuka (Кусакава Кэйдзо) [TV] [1-2 из 12] [Без хардсаба] [RUS(int), JAP+SUB] [2017, комедия, романтика, этти, музыкальный, драма, школа, сёнэн, WEBRip] [720p] Galfimbul 758156463723 MB 0 0 1483977420

18:57

9-Янв-17

Аниме | Rips ·· Фуука / Fuuka [TV] [01-02 из 12] [Без хардсаба] [RUS(ext), JAP, SUB] [2017, Драма, Музыка, Романтика, Школа, Сёнен, Этти, HDTVRip] [720p] Galfimbul 726897075693 MB 0 0 1483977404

18:56

9-Янв-17

Аниме | HD Rips ·· Фуука / Fuuka (Кусакава Кэйдзо) [TV] [Без хардсаба] [2 из 12] [JAP+SUB] [2017, комедия, романтика, этти, музыкальный, драма, школа, сёнэн , WEBRip] [720p] Galfimbul 692420012660 MB 0 0 1483914663

01:31

9-Янв-17

Аниме | Rips ·· Фуука / Fuuka [TV] [01-02 из 12] [Без хардсаба] [JAP, SUB] & [01 из 12] [RUS(ext)] [2017, Драма, Музыка, Романтика, Школа, Сёнен, Этти, HDTVRip] [720p] Galfimbul 656990508627 MB 0 0 1483894875

20:01

8-Янв-17

Аниме | HD Rips ·· Фуука / Fuuka (Кусакава Кэйдзо) [TV] [1 из 12] [Без хардсаба] [RUS(int), JAP+SUB] [2017, комедия, романтика, этти, музыкальный, драма, школа, сёнэн, WEBRip] [720p] Galfimbul 379731763362 MB 0 0 1483889373

18:29

8-Янв-17

Аниме | HD Rips ·· Фуука / Fuuka (Кусакава Кэйдзо) [TV] [Без хардсаба] [1 из 12] [JAP+SUB] [2017, комедия, романтика, этти, музыкальный, драма, школа, сёнэн , WEBRip] [720p] Galfimbul 346522580330 MB 0 0 1483791067

15:11

7-Янв-17

Еще никто не оставлял запись к записи скачать торрент Фуука Fuuka . Будь первым!

!Обратная связь