Скачать через торрент СудьбВеликая Кампания: Первая Миссия бесплатно Аниме Все серии на русском torrent

Если у вас наблюдаются проблемы со скриншотами, переходом по ссылками, скачиванием торрентов - проблемы в блокировщике рекламы AdBlock. #хорошегоДня!


Статистика раздачи
Размер:  19.4 GB   |    Зарегистрирован:  6 месяцев   |    .torrent скачан:  21 раз   |   
Раздают:  1  
   
Загрузка...
 
Автор Сообщение

Galfimbul

avatar Galfimbul


Судьба/Великая Кампания: Первая Миссия / Fate/Grand Order: First Order

Год выпуска: 2016
Страна: Япония
Жанр: фэнтези
Тип: Special
Продолжительность: 72 мин.
Озвучка:

Двухголосая (муж/жен) от JAM & Гамлетка Цезаревна (AniDub)

Русские субтитры: есть (отдельным файлом, формат .ass)
Перевод:

Sovereign, DarkScorpio [Shimizu] & [GMC]

Хардсаб: Нет<hr class="post-hr">Режиссер: Намба Хитоси
Студия: Lay-duce

Описание: 2015 год. В мире все еще господствует магия. Для сохранения своего рода человечество возвело научную лабораторию под названием «Халдея». Суть ее существования заключалась в том, чтобы наблюдать за миром при помощи той самой магии и достижений человечества. Благодаря усилиям ученых было подтверждено, что человечеству оставалось жить еще как минимум 100 лет. Однако «Халдея» зафиксировала некую аномалию, в результате которой наблюдаемая лабораторией область будущего внезапно исчезла. Все эти события привели к панике, и ученые принялись изучать полученные данные. Выяснилось, что в городе Фуюки в 2004 году существовала область, которая ни разу за всю историю существования «Халдеи» не попадала в поле ее зрения. Также подтвердилось вымирание человечества уже в 2017 году.

По результатам полученных данных «Халдея» принимает решение задействовать программу «Рейшифт». Смысл — отправить группу специально подготовленных людей (Мастеров) в прошлое для ликвидации аномалии. Однако, в лаборатории происходит взрыв, и все Мастера оказываются в критическом состоянии. Одному из них, Рицуке Фудзимару, все же удается попасть в прошлое, где разворачивалась легендарная война за Святой Грааль. Теперь ему предстоит выяснить, что же на самом деле произошло, и, по возможности, устранить угрозу.
© shikimori

Качество: Blu-Ray Remux
Формат: MKV
Видео кодек: AVC
Аудио кодек: FLAC
Видео: 1920x1080 (16:9) 23,976 fps ~34,9 Mbps 8bit
Аудио:
Jap FLAC, 48000Hz, ~1423 Kbps, 2ch
RUS (ext) AC3, 48000Hz, ~192 Kbps, 2ch

Чаптеры присутствуют.
Общее
Уникальный идентификатор : 242308020710891718929210211507518526167 (0xB64AD3C8F70320E0874E98993AFB52D7)
Полное имя : Z:\Anime Release - working\Fate Grand Order\[anti-raws]Fate Grand Order - First Order[BDRemux].mkv
Формат : Matroska
Версия формата : Version 4 / Version 2
Размер файла : 18,8 Гбайт
Продолжительность : 1 ч. 12 м.
Режим общего битрейта : Переменный
Общий поток : 37,2 Мбит/сек
Дата кодирования : UTC 2017-05-14 11:26:38
Программа кодирования : mkvmerge v11.0.0 ('Alive') 64bit
Библиотека кодирования : libebml v1.3.4 + libmatroska v1.4.5

Видео
Идентификатор : 2
Формат : AVC
Формат/Информация : Advanced Video Codec
Профиль формата : High@L4.1
Параметр CABAC формата : Да
Параметр ReFrames формата : 4 кадра
Идентификатор кодека : V_MPEG4/ISO/AVC
Продолжительность : 1 ч. 12 м.
Вид битрейта : Переменный
Битрейт : 35,8 Мбит/сек
Максимальный битрейт : 40,0 Мбит/сек
Ширина : 1920 пикселей
Высота : 1080 пикселей
Соотношение сторон : 16:9
Режим частоты кадров : Постоянный
Частота кадров : 23,976 (24000/1001) кадра/сек
Цветовое пространство : YUV
Субдискретизация насыщенности : 4:2:0
Битовая глубина : 8 бит
Тип развёртки : Прогрессивная
Бит/(Пиксели*Кадры) : 0.720
Размер потока : 18,1 Гбайт (96%)
Default : Нет
Forced : Нет

Аудио
Идентификатор : 1
Формат : FLAC
Формат/Информация : Free Lossless Audio Codec
Идентификатор кодека : A_FLAC
Продолжительность : 1 ч. 12 м.
Вид битрейта : Переменный
Битрейт : 1423 Кбит/сек
Каналы : 2 канала
Расположение каналов : Front: L R
Частота : 48,0 КГц
Частота кадров : 11,719 кадров/сек (4096 spf)
Битовая глубина : 24 бит
Размер потока : 735 Мбайт (4%)
Библиотека кодирования : libFLAC 1.2.1 (UTC 2007-09-17)
Язык : Japanese
Default : Да
Forced : Нет

Меню
00:00:00.000 : en:00:00:00.000
00:02:31.568 : en:00:02:31.568
00:08:49.612 : en:00:08:49.612
00:15:03.277 : en:00:15:03.277
00:20:43.242 : en:00:20:43.242
00:22:40.025 : en:00:22:40.025
00:29:30.769 : en:00:29:30.769
00:36:29.020 : en:00:36:29.020
00:41:04.045 : en:00:41:04.045
00:46:54.061 : en:00:46:54.061
00:51:41.223 : en:00:51:41.223
00:59:28.106 : en:00:59:28.106
01:06:19.475 : en:01:06:19.475
01:10:44.031 : en:01:10:44.031
...5386905
...5343323
--BDRip

Эта раздача - BDRemux
</div><!--/post_body-->

Трекер:  [ 14-Май-2017 14:30 ]

  

Скачать .torrent

Размер .torrent файла 27 KB


Размер: 19.4 GB
Хэш (hash) релиза: 016fe77ca2df1c564c4cfc42bbe65965ba0294c8
Подписка на обновления:

Еще никто не оставлял запись к записи скачать торрент СудьбВеликая Кампания: Первая Миссия . Будь первым!

!Обратная связь