Скачать через торрент Святая семёрка: Вечная библиотека и девушка-алхимик Gekijouban Trinity Seven: Yuukyuu Toshokan to Renkinjutsu Shoujo бесплатно Аниме Все серии на русском torrent

Если у вас наблюдаются проблемы со скриншотами, переходом по ссылками, скачиванием торрентов - проблемы в блокировщике рекламы AdBlock. #хорошегоДня!


Статистика раздачи
Размер:  14.13 GB   |    Зарегистрирован:  6 месяцев   |    .torrent скачан:  34 раза   |   
Раздают:  1  
   
Загрузка...
 
Автор Сообщение

Galfimbul

avatar Galfimbul


Святая семёрка: Вечная библиотека и девушка-алхимик / Gekijouban Trinity Seven: Yuukyuu Toshokan to Renkinjutsu Shoujo

Год выпуска: 2017
Страна: Япония
Жанр: приключения, комедия, фэнтези, этти
Тип:
Продолжительность: 56 мин.
Озвучка: нет

Русские субтитры: есть (отдельным файлом, формат .ass)
Перевод:

Andreysalo, MustDie [AOS]

Хардсаб: Нет<hr class="post-hr">Режиссер: Нисикиори Хироси
Студия: Seven Arcs

Описание: Из-за нелепой случайности Арата прикасается к магическому артефакту, а именно к гримуару Лилит под названием - Апокриф Гермес. Из-за этого магия Араты и магия Лилит соединяются вместе и книга превращается в физическое воплощение в образе маленькой девочке, которая называет себя дочкой Араты и Лилит. Также это событие вызвало пробуждение таинственной библиотеки, где некогда проводились алхимические эксперименты. Благодаря алхимии там было создано воплощение магии - Белый демон-лорд, перед которым встала задача уничтожить Арату.

Качество: Blu-Ray Remux
Формат: MKV
Видео кодек: AVC
Аудио кодек: FLAC
Видео: 1920x1080 (16:9) 23,976 fps ~33,9 Mbps 8bit
Аудио:
Jap FLAC, 48000Hz, ~1574 Kbps, 2ch

Чаптеры присутствуют.
Общее
Уникальный идентификатор : 188951388561353275425689293124828670013 (0x8E26B6B6C5BD5957B6620A535F6C283D)
Полное имя : Z:\Anime Release - working\Trinity Seven Movie\[anti-raws]Gekijouban Trinity Seven - Yuukyuu Toshokan to Renkinjutsu Shoujo[BDRemux].mkv
Формат : Matroska
Версия формата : Version 4 / Version 2
Размер файла : 14,1 Гбайт
Продолжительность : 55 м. 45 с.
Режим общего битрейта : Переменный
Общий поток : 36,3 Мбит/сек
Дата кодирования : UTC 2017-05-14 10:50:23
Программа кодирования : mkvmerge v11.0.0 ('Alive') 64bit
Библиотека кодирования : libebml v1.3.4 + libmatroska v1.4.5

Видео
Идентификатор : 2
Формат : AVC
Формат/Информация : Advanced Video Codec
Профиль формата : High@L4.1
Параметр CABAC формата : Да
Параметр ReFrames формата : 4 кадра
Идентификатор кодека : V_MPEG4/ISO/AVC
Продолжительность : 55 м. 45 с.
Вид битрейта : Переменный
Битрейт : 34,7 Мбит/сек
Максимальный битрейт : 39,0 Мбит/сек
Ширина : 1920 пикселей
Высота : 1080 пикселей
Соотношение сторон : 16:9
Режим частоты кадров : Постоянный
Частота кадров : 23,976 (24000/1001) кадра/сек
Цветовое пространство : YUV
Субдискретизация насыщенности : 4:2:0
Битовая глубина : 8 бит
Тип развёртки : Прогрессивная
Бит/(Пиксели*Кадры) : 0.698
Размер потока : 13,5 Гбайт (96%)
Default : Нет
Forced : Нет

Аудио
Идентификатор : 1
Формат : FLAC
Формат/Информация : Free Lossless Audio Codec
Идентификатор кодека : A_FLAC
Продолжительность : 55 м. 45 с.
Вид битрейта : Переменный
Битрейт : 1573 Кбит/сек
Каналы : 2 канала
Расположение каналов : Front: L R
Частота : 48,0 КГц
Частота кадров : 11,719 кадров/сек (4096 spf)
Битовая глубина : 24 бит
Размер потока : 627 Мбайт (4%)
Библиотека кодирования : libFLAC 1.2.1 (UTC 2007-09-17)
Язык : Japanese
Default : Да
Forced : Нет

Меню
00:00:00.000 : en:00:00:00.000
00:04:40.280 : en:00:04:40.280
00:16:10.970 : en:00:16:10.970
00:31:07.866 : en:00:31:07.866
00:34:49.087 : en:00:34:49.087
00:36:48.206 : en:00:36:48.206
00:41:20.478 : en:00:41:20.478
00:43:11.589 : en:00:43:11.589
00:49:58.996 : en:00:49:58.996
00:54:39.276 : en:00:54:39.276
...5402442
...5371134
--BDRip

Эта раздача - BDRemux
</div><!--/post_body-->

Трекер:  [ 14-Май-2017 13:30 ]

  

Скачать .torrent

Размер .torrent файла 18 KB


Размер: 14.13 GB
Хэш (hash) релиза: 1b7ce14d5ffe9c05e92d1f9a4903768fc2d94847
Подписка на обновления:

Торренты, похожие на Святая семёрка: Вечная библиотека и девушка-алхимик Gekijouban Trinity Seven: Yuukyuu Toshokan to Renkinjutsu Shoujo скачать торрент

Форум Название Автор Размер S L Добавлен
Аниме | Rips ·· Святая семёрка: Вечная библиотека и девушка-алхимик / Gekijouban Trinity Seven: Yuukyuu Toshokan to Renkinjutsu Shoujo [Movie] [Без хардсаба] [RUS(ext), JAP, SUB] [2017, Экшен, Гарем, Комедия, Романтика, Этти, Фэнтези, Школа, Сёнен, BDRip] [720p] Galfimbul 1030068546982 MB 0 0 1496829767

13:02

7-Июн-17

Еще никто не оставлял запись к записи скачать торрент Святая семёрка: Вечная библиотека и девушка-алхимик Gekijouban Trinity Seven: Yuukyuu Toshokan to Renkinjutsu Shoujo . Будь первым!

!Обратная связь