Скачать через торрент Деми хотят поболтать Demi-chan wa Kataritai бесплатно Аниме Все серии на русском torrent

Если у вас наблюдаются проблемы со скриншотами, переходом по ссылками, скачиванием торрентов - проблемы в блокировщике рекламы AdBlock. #хорошегоДня!


Статистика раздачи
Размер:  375 MB   |    Зарегистрирован:  4 месяца 20 дней   |    .torrent скачан:  16 раз   |   
Раздают:  1  
   
Загрузка...
 
Автор Сообщение

Galfimbul

avatar Galfimbul


<hr class="post-hr">
Год выпуска: 2017
Страна: Япония
Жанр: комедия, повседневность
Продолжительность: ТВ, 12 эп. по 24 мин.
Выпуск: c 08.01.2017 по 26.03.2017<hr class="post-hr">Перевод:

русские субтитры от Blazing Wizard & Scrap (полные/вспомогательные)

<hr class="post-hr">Режиссер: Андо Рё
Студия: A-1 Pictures Inc.<hr class="post-hr">Описание:
Не так давно во всем мире раскрылось существование полулюдей. Однако люди, прагматичные и далекие от мистического прогресса, подвергли тех жесткой дискриминации со стороны общества, вынудив скрываться и жить отдельно. Постепенно человек сменил гнев на милость и принял расу-«чужестранку», в результате чего полулюди начали мирно сосуществовать с людьми, приняв новое имя — «дэми» (рус. «приятели»).

Главный герой Тэцуо Такахаши настолько заинтересован дэми, что выбрал их темой для написания своей диссертации. Однако из-за того, что дэми можно по пальцам пересчитать и встречаются они крайне редко, задача стала практически невозможной. Устроившись учителем биологии в старшую школу, Тэцуо, к своему удивлению, обнаруживает там целую группу дэми. На выбор ученому: вампир, дуллахан, суккуб и даже юки-онна. Но что еще лучше, все они — дамы. Будучи полулюдьми, девушки не очень вписываются в остальной коллектив, и учитель Такахаши начинает прилагать все свои усилия, дабы помочь им освоиться в стенах школы и узнать о них как можно больше.
© Shikimori<hr class="post-hr">Информационные ссылки: AniDB || World Art || MAL<hr class="post-hr">Качество: BDRip
Энкод: Winter - RG Pantheon
Тип видео: без хардсаба, без линковки
Формат: mkv
Видео: x264 (Hi10p), 1280x720, ~1700 Kbps, 23.976 fps
Аудио JAP: Vorbis, 48000Hz, ~256 Kbps, 2ch
Аудио RUS 1: AC3, 48000Hz, ~192 Kbps, 2ch (внешними файлами)<hr class="post-hr">
трехголосая от Trina_D & Nika Lenina & JAM (AniDub)
01. Takahashi Tetsuo Wants an Interview
02. Dullahan-chan Wants to Be Coddled
03. Succubus-san Is a Real Adult
04. Takahashi Tetsuo Wants to Protect
05. Snow Woman-chan Is Cold
06. The Takanashi Sisters Are Undeniable
07. Succubus-san Is Inquisitive
08. Demi-chans Want to Learn
09. Demi-chans Want to Try
10. The Dullahan Surpasses Space-Time
11. Demi-chans Want to Support
12. Demi-chans Want to Swim
...5340925
...5338645
- BDRip
Общее
Уникальный идентификатор : 228859538306284998900292492373699454604 (0xAC2CBE68E87BED5B90D3A8C26D2DE68C)
Полное имя : A:\Anime\720p\Demi-chan wa Kataritai [BD] [720p]\[W] Demi-chan wa Kataritai 01 [BDrip 1280x720 x264 Vorbis].mkv
Формат : Matroska
Версия формата : Version 2
Размер файла : 342 Мбайт
Продолжительность : 23 м.
Режим общего битрейта : Переменный
Общий поток : 2018 Кбит/сек
Дата кодирования : UTC 2017-04-22 20:47:46
Программа кодирования : mkvmerge v2.9.8 ('C'est le bon') built on Aug 13 2009 12:49:06
Библиотека кодирования : libebml v0.7.7 + libmatroska v0.8.1

Видео
Идентификатор : 1
Формат : AVC
Формат/Информация : Advanced Video Codec
Профиль формата : High 10@L4.1
Параметр CABAC формата : Да
Параметр ReFrames формата : 9 кадров
Идентификатор кодека : V_MPEG4/ISO/AVC
Продолжительность : 23 м.
Битрейт : 1722 Кбит/сек
Ширина : 1280 пикселей
Высота : 720 пикселей
Соотношение сторон : 16:9
Режим частоты кадров : Постоянный
Частота кадров : 23,976 кадра/сек
Цветовое пространство : YUV
Субдискретизация насыщенности : 4:2:0
Битовая глубина : 10 бит
Тип развёртки : Прогрессивная
Бит/(Пиксели*Кадры) : 0.078
Размер потока : 292 Мбайт (85%)
Библиотека кодирования : x264 core 148 r2694 3b70645
Настройки программы : cabac=1 / ref=9 / deblock=1:-2:-2 / analyse=0x3:0x133 / me=umh / subme=9 / psy=1 / psy_rd=0.90:0.00 / mixed_ref=1 / me_range=24 / chroma_me=1 / trellis=2 / 8x8dct=1 / cqm=0 / deadzone=21,11 / fast_pskip=1 / chroma_qp_offset=-2 / threads=12 / lookahead_threads=2 / sliced_threads=0 / nr=0 / decimate=0 / interlaced=0 / bluray_compat=0 / constrained_intra=0 / bframes=8 / b_pyramid=2 / b_adapt=2 / b_bias=0 / direct=1 / weightb=1 / open_gop=0 / weightp=2 / keyint=250 / keyint_min=23 / scenecut=40 / intra_refresh=0 / rc=crf / mbtree=0 / crf=15.7 / qcomp=0.70 / qpmin=9 / qpmax=40 / qpstep=4 / ip_ratio=1.40 / pb_ratio=1.30 / aq=1:0.90
Default : Нет
Forced : Нет

Аудио
Идентификатор : 2
Формат : Vorbis
Параметр Floor формата : 1
Идентификатор кодека : A_VORBIS
Продолжительность : 23 м.
Вид битрейта : Переменный
Битрейт : 256 Кбит/сек
Каналы : 2 канала
Частота : 48,0 КГц
Метод сжатия : С потерями
Размер потока : 43,4 Мбайт (13%)
Библиотека кодирования : libVorbis (??] (20150105 (??])
Язык : Japanese
Default : Да
Forced : Нет
<hr class="post-hr"> <hr class="post-hr">
Выбор видео, перевода, озвучки, а также типа сборки материала осуществляется релизером и не подлежит обсуждению. Если вы считаете, что раздаваемый материал противоречит правилам раздела "Аниме" rutracker.org, сообщите об этом одному из модераторов раздела.

В случае появления нового материала или же лучшего по качеству материала релизер оставляет за собой право обновить раздачу. В этом случае вам необходимо ознакомиться с изменениями (добавлениями) и перекачать торрент.

Данный релиз предназначен для просмотра на ПК. Воспроизведение на иных проигрывателях не гарантируется. Для просмотра рекомендуется Media Player Classic с установленным пакетом кодеков K-Lite.

Данный релиз содержит 10-битное видео (Hi10p). Для корректного воспроизведения обязательно используйте кодеки, поддерживающие 10-битное видео.
Обсудить частные случаи проблем с воспроизведением и получить дополнительную информацию можно здесь.

Данный релиз предназначен для просмотра с внешними субтитрами и внешними звуковыми дорожками.

Для просмотра с внешней звуковой дорожкой нужно:
перекинуть файлы .mka из папки "RUS Sound [<автор(ы) озвучки>]" в одну папку с видео и переключить звуковую дорожку в плеере при просмотре. Как это сделать в разных плеерах подробно описано здесь.
Для просмотра с субтитрами нужно:
перекинуть файлы .ass из папки "RUS Subtitles [<автор(ы) перевода>]" в одну папку с видео - плеер подгрузит их автоматически при открытии видео.

Если у вас возникли проблемы с просмотром, не связанные с описанным выше, сообщите о них автору раздачи посредством сообщения в теме или ЛС Aglenn.


Трекер:  [ 06-Май-2017 20:30 ]

  

Скачать .torrent

Размер .torrent файла 15 KB


Размер: 375 MB
Хэш (hash) релиза: ead4d9ef87a654228b625bd2df4d056d4f79c462
Подписка на обновления:

Еще никто не оставлял запись к записи скачать торрент Деми хотят поболтать Demi-chan wa Kataritai . Будь первым!

!Обратная связь