Скачать через торрент музыку Прогулка под весенним дождем A Walk In The Spring Rain бесплатно без регистрации torrent

Если у вас наблюдаются проблемы со скриншотами, переходом по ссылками, скачиванием торрентов - проблемы в блокировщике рекламы AdBlock. #хорошегоДня!


Статистика раздачи
Размер:  204 MB   |    Зарегистрирован:  4 месяца 19 дней   |    .torrent скачан:  17 раз   |   
Раздают:  1  
   
Загрузка...
 
Автор Сообщение

Galfimbul

avatar Galfimbul


Прогулка под весенним дождем / A Walk In The Spring Rain

Жанр: Score
Композитор: Elmer Bernstein
Год выпуска диска: 2009
Год выпуска фильма: 1970
Производитель диска: USA
Издатель (лейбл): Varese Sarabande
Номер по каталогу: VCL 0909 1100

Аудиокодек: FLAC (*.flac)
Тип рипа: image+.cue
Битрейт аудио: lossless
Продолжительность: 34.11
Источник: собственный рип
Наличие сканов в содержимом раздачи: да (600 dpi)
01. Main Title - A Walk In The Spring Rain [02:28.56]
performed by Michael Dees
02. Restaurant Bossa [03:21.59]
03. Thoughts [01:15.05]
04. Snowy Morning [00:24.73]
05. Drive [00:35.17]
06. Woman [00:48.39]
07. Spring [02:41.48]
08. Red Bud [00:48.14]
09. Confession [01:00.28]
10. Gatlingburg [02:50.61]
11. Hoo Ha Cha Cha [01:50.68]
12. What Blues [01:18.22]
13. Sleepless [00:41.27]
14. First Kiss [04:05.50]
15. Country [01:07.39]
16. Funeral [03:17.72]
17. Aftermath [02:44.15]
18. End Title [02:49.56]
performed by Michael Dees
Exact Audio Copy V1.0 beta 3 from 29. August 2011

EAC extraction logfile from 16. February 2016, 18:46

Elmer Bernstein / A Walk In The Spring Rain

Used drive : TSSTcorpCDDVDW SH-S202H Adapter: 0 ID: 0

Read mode : SecureUtilize accurate stream : YesDefeat audio cache : YesMake use of C2 pointers : No

Read offset correction : 6Overread into Lead-In and Lead-Out : NoFill up missing offset samples with silence : YesDelete leading and trailing silent blocks : NoNull samples used in CRC calculations : YesUsed interface : Native Win32 interface for Win NT & 2000

Used output format : Internal WAV RoutinesSample format : 44.100 Hz; 16 Bit; Stereo

TOC of the extracted CD

Track | Start | Length | Start sector | End sector --------------------------------------------------------- 1 | 0:00.00 | 2:28.56 | 0 | 11155 2 | 2:28.56 | 3:21.59 | 11156 | 26289 3 | 5:50.40 | 1:15.05 | 26290 | 31919 4 | 7:05.45 | 0:24.73 | 31920 | 33792 5 | 7:30.43 | 0:35.17 | 33793 | 36434 6 | 8:05.60 | 0:48.39 | 36435 | 40073 7 | 8:54.24 | 2:41.48 | 40074 | 52196 8 | 11:35.72 | 0:48.14 | 52197 | 55810 9 | 12:24.11 | 1:00.28 | 55811 | 60338 10 | 13:24.39 | 2:50.61 | 60339 | 73149 11 | 16:15.25 | 1:50.68 | 73150 | 81467 12 | 18:06.18 | 1:18.22 | 81468 | 87339 13 | 19:24.40 | 0:41.27 | 87340 | 90441 14 | 20:05.67 | 4:05.50 | 90442 | 108866 15 | 24:11.42 | 1:07.39 | 108867 | 113930 16 | 25:19.06 | 3:17.72 | 113931 | 128777 17 | 28:37.03 | 2:44.15 | 128778 | 141092 18 | 31:21.18 | 2:49.56 | 141093 | 153823

Range status and errors

Selected range

Filename D:\Elmer Bernstein - A Walk In The Spring Rain\Elmer Bernstein - A Walk In The Spring Rain.wav

Peak level 98.8 % Extraction speed 2.6 X Range quality 100.0 % Test CRC D6C3FFCA Copy CRC D6C3FFCA Copy OK

No errors occurred

AccurateRip summary

Track 1 accurately ripped (confidence 6) [59F58C6C] (AR v2)Track 2 accurately ripped (confidence 6) [21A8174C] (AR v2)Track 3 accurately ripped (confidence 6) [D0EE48EA] (AR v2)Track 4 accurately ripped (confidence 6) [7E84E5C5] (AR v2)Track 5 accurately ripped (confidence 6) [5E11E365] (AR v2)Track 6 accurately ripped (confidence 6) [7FDC2BF1] (AR v2)Track 7 accurately ripped (confidence 6) [24B96BFF] (AR v2)Track 8 accurately ripped (confidence 6) [EAA87538] (AR v2)Track 9 accurately ripped (confidence 6) [0E2135D8] (AR v2)Track 10 accurately ripped (confidence 6) [82068966] (AR v2)Track 11 accurately ripped (confidence 6) [1A03CF88] (AR v2)Track 12 accurately ripped (confidence 6) [2A575450] (AR v2)Track 13 accurately ripped (confidence 6) [6C0D8A28] (AR v2)Track 14 accurately ripped (confidence 6) [69D0F617] (AR v2)Track 15 accurately ripped (confidence 6) [A3FD8865] (AR v2)Track 16 cannot be verified as accurate (confidence 6) [0EF028B3], AccurateRip returned [5934863F] (AR v2)Track 17 accurately ripped (confidence 6) [24DF89F5] (AR v2)Track 18 accurately ripped (confidence 6) [A436A863] (AR v2)

17 трек(и) скопированы точно 1 трек(и) не удалось проверить на точность

Some tracks could not be verified as accurate

End of status report

==== Log checksum C2A2CCB0DB37E572B4E8900F29316A56038B63ED63803586D07AD74F0BADF54A ====
Небольшой, но очень выразительный альбом от маэстро Элмера Бернстейна, Прогулка под весенним дождем.
В очередной раз мы можем убедиться в многогранности композитора - для многих имя Бернстейна прочно ассоциируется только с вестернами, либо комедиями, или боевиками, либо с историческими опусами.
Здесь же мы видим совсем иного композитора - Бернстейна-романтика, чей стиль, однако легко угадывается с первых же нот.



Трекер:  [ 30-Апр-2017 14:30 ]

  

Скачать .torrent

Размер .torrent файла 17 KB


Размер: 204 MB
Хэш (hash) релиза: 59ac32dcaa03da606630a22607c16c7d5a774340

Еще никто не оставлял запись к записи скачать торрент Прогулка под весенним дождем A Walk In The Spring Rain . Будь первым!

!Обратная связь