Скачать порно через торрент [GuysInSweatPants.com] Spit Roasting Logan UnionPeer.org бесплатно онлайн HD качество

Скачать новое порно 2015, 2014 новинки через торрент UnionPeer.org

Порно торрент бесплатно ЮнионПир.орг

Если у вас наблюдаются проблемы со скриншотами, переходом по ссылками, скачиванием торрентов - проблемы в блокировщике рекламы AdBlock. #хорошегоДня!


Статистика раздачи
Размер:  805 MB   |    Зарегистрирован:  6 месяцев   |    .torrent скачан:  122 раза   |   
Раздают:  1  
   
Загрузка...
 
Автор Сообщение

Galfimbul

avatar Galfimbul




[GuysInSweatPants.com] Spit Roasting Logan (Alex, Drake, Logan Cross)


Имя актера: Alex, Drake, Logan Cross
Подсайт и сайт: GuysInSweatPants.com

Год производства: 2017 г.
Жанр: Anal Sex, Bareback, Big Dick, Blowjob, Cumshots, Interracial, Kissing, Masturbation, Muscles, Rimming, Threesome, Uncut.
Продолжительность: 00:20:57

Описание: Nothing makes a power bottom happier than handing him 2 hard dicks, and saying “they’re all yours, have fun!” Logan was here because he and Austin wanted to fuck, but he wanted to stick around for a couple days, so we decided to let him get dicked down again. Alex and Drake volunteered, and it wasn’t long after them coming in the room that Logan was on his kees eagerly sucking on both of their nice, uncut cocks. Drake and Alex both took turns licking and spitting on Logan’s hole, then fucking him tag team style. Logan being their little play toy, first Drake pounds his load on and into him… then Alex gets up and does the same until they both cum at the same time. Everyone left drained…literally.

Доп. информация: официальный релиз - 26.04.2017

Тип HD видео: 1080p
Формат видео: mkv
Видео: AVC, 1920x1080 (16:9), 29.970 fps, 4979 Кбит/сек
Аудио: AAC HE-AAC / LC, 44.1 KHz / 22.05 KHz, 2 ch, 64,0 Кбит/сек
Общее
Уникальный идентификатор : 171074483675439013031229052366611553477 (0x80B3BF40D6BA937B9909B25915141CC5)
Полное имя : [GISP]SpitRoastingLogan_Alex-Drake-LoganCross-1080p.mkv
Формат : Matroska
Версия формата : Version 4 / Version 2
Размер файла : 805 Мбайт
Продолжительность : 22 м.
Общий поток : 5045 Кбит/сек
Дата кодирования : UTC 2017-04-26 20:15:32
Программа кодирования : mkvmerge v11.0.0 (''Alive'') 64bit
Библиотека кодирования : libebml v1.3.4 + libmatroska v1.4.5

Видео
Идентификатор : 1
Формат : AVC
Формат/Информация : Advanced Video Codec
Профиль формата : Main@L3.1
Параметр CABAC формата : Да
Параметр ReFrames формата : 4 кадра
Идентификатор кодека : V_MPEG4/ISO/AVC
Продолжительность : 22 м.
Битрейт : 4979 Кбит/сек
Ширина : 1920 пикселей
Высота : 1080 пикселей
Соотношение сторон : 16:9
Режим частоты кадров : Постоянный
Частота кадров : 29,970 (30000/1001) кадров/сек
Цветовое пространство : YUV
Субдискретизация насыщенности : 4:2:0
Битовая глубина : 8 бит
Тип развёртки : Прогрессивная
Бит/(Пиксели*Кадры) : 0.080
Размер потока : 794 Мбайт (99%)
Библиотека кодирования : Zencoder Video Encoding System
Default : Да
Forced : Нет
Цветовой диапазон : Limited
Основные цвета : BT.709
Характеристики трансфера : BT.709
Коэффициенты матрицы : BT.709

Аудио
Идентификатор : 2
Формат : AAC
Формат/Информация : Advanced Audio Codec
Профиль формата : HE-AAC / LC
Идентификатор кодека : A_AAC
Продолжительность : 22 м.
Битрейт : 64,0 Кбит/сек
Каналы : 2 канала
Расположение каналов : Front: L R
Частота : 44,1 КГц / 22,05 КГц
Частота кадров : 21,533 кадра/сек (1024 spf)
Метод сжатия : С потерями
Задержка видео : -96 мс.
Размер потока : 10,2 Мбайт (1%)
Default : Да
Forced : Нет



Трекер:  [ 29-Апр-2017 04:30 ]

  

Скачать .torrent

Размер .torrent файла 16 KB


Размер: 805 MB
Хэш (hash) релиза: 680db1e73e7c3f69e7c9de50ca77898e845a095a

Еще никто не оставлял запись к записи скачать торрент [GuysInSweatPants.com] Spit Roasting Logan . Будь первым!

!Обратная связь