Скачать через торрент M3: Чёрная сталь M3: Sono Kuroki Hagane бесплатно Аниме Все серии на русском torrent

Если у вас наблюдаются проблемы со скриншотами, переходом по ссылками, скачиванием торрентов - проблемы в блокировщике рекламы AdBlock. #хорошегоДня!


Статистика раздачи
Размер:  33.91 GB   |    Зарегистрирован:  5 месяцев 28 дней   |    .torrent скачан:  33 раза   |   
Раздают:  1  
   
Загрузка...
 
Автор Сообщение

Galfimbul

avatar Galfimbul




M3: Чёрная сталь / M3: Sono Kuroki Hagane / M3: Sono Kuroki Tetsu / М3: Эта чёрная сталь


Страна: Япония
Год выпуска: 2014 г.
Жанр: экшен, драма, меха, детектив, психология/
Тип: TV
Продолжительность: 24 эпизодов по ~24 мин.
Режиссер: Сато Дзюнъити.
Студия: Satelight
Перевод:

Русские субтитры: YakuSub Studio

Перевод: Aero; Оформление: Helge; Переводчик/Перевод песен: Nika_Elrik.

<div style="margin-left: 2em" class="post-ul">Русская озвучка: двухголосая (муж./жен.) ShadMG, MezIdA [AniFilm]</div>
Описание:Непроглядный, бесконечный мрак вокруг. Место, в котором тьма поглотила и забрала все, известное теперь как Царство Мрака. Отчаяние и хаос человечества здесь обретают форму странных существ, которых называют Искажённые.
Научная экспедиция исследует Царство Мрака, зона и обитатели которого поглощают человеческие души. Для этого ученые сформировали учебный отряд из абсолютно разных юношей и девушек, практически ничем не связанных между собой. Или так только кажется на первый взгляд?
Сложные пересечения между надвигающейся угрозой в настоящем и узлами судьбы прошлого. Сможет ли эта восьмерка ребят, призванных противостоять царству мрака, найти путь в светлое будущее?
acid_emily, © Shikimori.
Качество: BDRip 1080p.
Тип релиза: Без хардсаба
Формат видео: MKV
Наличие линковки: Нет
Релиз/Автор рипа: Jensen [Beatrice-Raws].
Видео: H.264, Hi10p, 1920х1080, ~6749 kbps, 23.976 fps.
Аудио#1: Jp, FLAC, ~1420 kbps, 48 kHz, 2ch.
Аудио#2: Russian: AAC, 192 kbps, 48.0 Hz, 2 ch | [2VO]
<div class="sp-wrap">
<div class="sp-head folded">AvDump</div>
<div class="sp-body">

File: Q:\!АНИМЕ!\[Beatrice-Raws] M3 Sono Kuroki Hagane [BDRip 1920x1080 x264 FLAC]\[Beatrice-Raws] M3 Sono Kuroki Hagane 01 [BDRip 1920x1080 x264 FLAC].mkv Duration: 00:24:11 (1451.12) Track #1: video (BDrip by Jensen) lang: jpn (2) codc: V_MPEG4/ISO/AVC -> H264/AVC (22) reso: 1920x1080 -> 16:9 fram: 23.976 fps rate: 6749 kbps (6748.8) dura: 00:24:11 (1451.07) size: 1.14 GB (1224127455) Track #2: audio lang: jpn -> Japanese (2) codc: A_FLAC -> Other (15) chan: 2 -> Stereo samp: 48000 Hz rate: 1420 kbps (1419.57) dura: 00:24:11 (1450.75) size: 245.50 MB (257429887) Sizes: (check sanity) disk: 1.38 GB (1481865888) trac: 1.38 GB (1481557342) [based on track size] bitr: 1.38 GB (1481614570) [based on bitrate] tdif: 301.31 KB (308546) 0.02% bdif: 245.43 KB (251317) 0.01%
GeneralUnique ID : 252755761303844679882499088816267110463 (0xBE26FD2A9775175BA8E9348629E0A83F)Complete name : Q:\!АНИМЕ!\[Beatrice-Raws] M3 Sono Kuroki Hagane [BDRip 1920x1080 x264 FLAC]\[Beatrice-Raws] M3 Sono Kuroki Hagane 01 [BDRip 1920x1080 x264 FLAC].mkvFormat : MatroskaFormat version : Version 4 / Version 2File size : 1.38 GiBDuration : 24mn 11sOverall bit rate mode : VariableOverall bit rate : 8 170 KbpsEncoded date : UTC 2017-04-07 22:38:20Writing application : mkvmerge v7.1.0 ('Good Love') 64bit built on Jul 27 2014 13:06:55Writing library : libebml v1.3.0 + libmatroska v1.4.1

VideoID : 1Format : AVCFormat/Info : Advanced Video CodecFormat profile : High 10@L5Format settings, CABAC : YesFormat settings, ReFrames : 4 framesCodec ID : V_MPEG4/ISO/AVCDuration : 24mn 11sBit rate : 6 749 KbpsWidth : 1 920 pixelsHeight : 1 080 pixelsDisplay aspect ratio : 16:9Frame rate mode : ConstantFrame rate : 23.976 (24000/1001) fpsColor space : YUVChroma subsampling : 4:2:0Bit depth : 10 bitsScan type : ProgressiveBits/(Pixel*Frame) : 0.136Stream size : 1.14 GiB (83%)Title : BDrip by JensenWriting library : x264 core 148 r2597M e86f3a1 (DJATOM's build)Encoding settings : cabac=1 / ref=4 / deblock=1:1:-1 / analyse=0x3:0x113 / me=umh / subme=9 / psy=1 / fade_compensate=0.00 / psy_rd=1.00:0.00 / mixed_ref=1 / me_range=32 / chroma_me=1 / trellis=2 / 8x8dct=1 / cqm=0 / deadzone=21,11 / fast_pskip=1 / chroma_qp_offset=-2 / threads=34 / lookahead_threads=5 / sliced_threads=0 / nr=0 / decimate=1 / interlaced=0 / bluray_compat=0 / constrained_intra=0 / bframes=9 / b_pyramid=2 / b_adapt=2 / b_bias=0 / direct=1 / weightb=1 / open_gop=0 / weightp=2 / keyint=240 / keyint_min=23 / scenecut=40 / intra_refresh=0 / rc=crf / mbtree=0 / crf=15.0000 / qcomp=0.72 / qpmin=0 / qpmax=81 / qpstep=4 / ip_ratio=1.40 / pb_ratio=1.30 / aq=1:0.85Language : JapaneseDefault : YesForced : NoColor range : LimitedColor primaries : BT.709Transfer characteristics : BT.709Matrix coefficients : BT.709

AudioID : 2Format : FLACFormat/Info : Free Lossless Audio CodecCodec ID : A_FLACDuration : 24mn 11sBit rate mode : VariableBit rate : 1 419 KbpsChannel(s) : 2 channelsChannel positions : Front: L RSampling rate : 48.0 KHzFrame rate : 11.719 fps (4096 spf)Bit depth : 24 bitsStream size : 245 MiB (17%)Writing library : libFLAC 1.3.1 (UTC 2014-11-25)Language : JapaneseDefault : YesForced : No

Menu00:00:00.000 : en:Avant00:01:39.015 : en:OP00:03:04.976 : en:Part A00:12:49.018 : en:Part B00:22:34.978 : en:ED00:24:05.026 : en:Next
</div>
</div>
01. Звёздная ночь
02. В объятиях жнеца
03. Шрам прошлого
04. Опасно, не смешивать
05. Бесполезный
06. Ужас, переходящий в смерть
07. Команда одиночества
08. Безумное запретное царство
09. Голубое сердце стали
10. Твоя песня
11. Алый плач жестокости
12. То, что объединяет двух людей
13. Рык зверя
14. Звуки сожаления
15. Пустое сердце серой зари
16. Наше обещание
17. Свет Мрака
18. Правда Йомидзимы
19. Чёрный закат
20. Переплетающиеся звуки любви
21. Ты зародишь голос конца
22. Свет, а затем свет
23. Доказательство сильнейшего
24. Первородный грех, прошлое и будущее
M3: Чёрная сталь / M3: Sono Kuroki Hagane (Сато Дзюнъити) [TV] [01-24 из 24] [Без хардсаба] [RUS(int), JAP+SUB] [2014, приключения, фантастика, HDTVRip] [720p] -
M3: Чёрная сталь / M3: Sono Kuroki Hagane (Сато Дзюнъити) [TV] [24 из 24] [Без хардсаба] [JAP+SUB] [2014, приключения, фантастика, HDTVRip] [720p] -
BDRip 1080p.


Трекер:  [ 25-Апр-2017 10:30 ]

  

Скачать .torrent

Размер .torrent файла 60 KB


Размер: 33.91 GB
Хэш (hash) релиза: 0a840340f9296b5a5dc848a461583109ecf93775
Подписка на обновления:

Торренты, похожие на M3: Чёрная сталь M3: Sono Kuroki Hagane скачать торрент

Форум Название Автор Размер S L Добавлен
Аниме | HD Rips ·· M3: Чёрная сталь / M3: Sono Kuroki Hagane / M3: Sono Kuroki Tetsu / М3: Эта чёрная сталь (Сато Дзюнъити) [TV] [24 из 24] [Без хардсаба] [Rus(ext), JAP+SUB] [2014, экшен, драма, меха, детектив, психология, BDRip] [720p] Galfimbul 1332567947912.41 GB 0 0 1504425753

11:02

3-Сен-17

Еще никто не оставлял запись к записи скачать торрент M3: Чёрная сталь M3: Sono Kuroki Hagane . Будь первым!

!Обратная связь